#TITLE:THIS IS THE LIFE;
#ARTIST:HANNAH MONTANA;
#FILE:THIS IS THE LIFE.mp3;
#BPM:141.000;
#GAP:314;
#SAMPLESTART:30.057;
#SAMPLELENGTH:15.000;
#CDTITLE:./CDTITLES/Dance Dance Revolution Disney Channel Edition.png;
#DISPLAYBPM:139..142;
#CHANGEBPM:920.000=120.000;
#SINGLE:BEGINNER:1:
00000000
00000000
00000000
00000000
40000020
00000080
80000060
00000040
00000080
00000020
00000080
00000040
00000060
00000040
00000060
00000080
00800080
00000000
20002000
80008000
60000000
40000000
80008000
20002000
60000000
40004000
40006000
80002000
40006000
20008000
40006000
B0000000
20000000
80000020
00000080
00000020
00000000
60000040
00000060
00000040
00000020
00200020
00000000
80008000
20002000
40000000
60000000
20002000
80008000
40000000
60006000
60004000
20008000
60004000
80002000
60004000
B0000000
80000000
;
#SINGLE:BASIC:3:
00000000
00000000
00000000
00000000
4!40004000
8!80008000
2!20002000
00606060
00400020
00400020
00600020
00600020
00800040
00800040
00600080
00600080
00200040
60406040
2!20202000
80606000
40006000
20004060
2!20202000
80404000
60004000
20802080
60004000
20402000
80002000
60206000
80004000
B0000000
2!20002000
8!800080A0
00600080
00600080
00400080
00400080
00200060
00200060
00400020
00400020
00800060
40604060
8!80808000
20404000
60004000
80006040
8!80808000
20606000
40006000
80208020
40006000
80608000
20008000
40804000
20006000
B0000000
2!20000020
;
#SINGLE:ANOTHER:5:
00000000
00000000
00000000
00000000
60004010
80006030
800040B0
002220A0
00600040
00600048
20800020
00800282
60400020
00600024
80200060
00800024
80208060
40602628
4!400B0080
2!2001!400B0
80802020
40406282
6!600B0080
2!2003!600B0
80206040
82608240
6!6064!40480
20402060
8!8082!20260
20402080
6!6064!40460
B0008282
40006030
40004010
00400060
00400062
80200080
00200828
40600080
00400086
20800040
00200086
20802040
60408482
6!600B0020
8!8009!600B0
20208080
60604828
4!400B0020
8!8007!400B0
20804060
28402860
4!4046!60620
80608040
2!2028!80840
80608020
4!4046!60640
B0002828!8
00000000
80000000
;
#SINGLE:MANIAC:7:
00000000
00000000
00000000
00000000
8!80047070
6!60089090
2!20041010
046464B0
8!80400078
2!20600038
2!20400016
8!80200A42
8!80600926
4!40800742
4!40200186
40406068
20482064
28024826
40240480
42860620
84804240
68602642
80620280
48260680
42406860
48264!40B!60
92408260
862840B0
28602840
826420A0
64208640
B0008246!6
000230B0
4!400210B0
2!20600032
8!80400072
8!80600094
2!20800A68
2!20400184
6!60200368
6!60800924
60604042
80628046
82086284
60860620
68240480
26408420
86408468
20480820
62840420
68204820
62846!60B!40
18602840
248260B0
82408260
284680A0
46208460
A0004826!6
00000000
60000000
;
#DOUBLE:MANIAC:7:
00000000
00000000
00000000
00000000
400440B0
60066060
00000000
00000680
20602040
80600000
00602060
00000000
00602040
20600000
00608060
00000000
00000000
00000060
60620420
86280260
80600600
20600606
60000000
00000000
06002680
06000000
00600620
86284070
26806800
60000000
00000060
60006068
00088060
00000060
80608040
20600000
00608060
00000000
00608040
80600000
00602060
00000000
00000000
00000060
60680480
26820860
20600600
80600606
60000000
00000000
06008620
06000000
00600680
26824010
86206200
60000000
00000060
60006062!2
00000000
20000000
:
00000000
00000000
00000000
00000000
00000000
00000040
400440B0
06824000
00000000
00004020
40000000
40806080
40000000
00004020
40000000
42406260
824080A0
46284204
40000000
00000000
04002040
04008040
40420620
84280240
20400000
408280A0
24004000
00000000
00000040
024820A0
68408400
40000400
00000040
20022040
00000000
00004080
40000000
40206020
40000000
00004080
40000000
48406860
284020A0
46824804
40000000
00000000
04008040
04002040
40480680
24820840
80400000
402820A0
84004000
00000000
00000040
084280A0
62402400
40000400
00000000
00000000
;
#DOUBLE:ANOTHER:5:
00000000
00000000
00000000
00000000
400080A0
20006090
80000060
00606060
00000000
00000000
00000000
00000606
20800060
00200084
80200060
00800006
00006060
00000000
00000000
00000000
60600000
20608282
4!40080010
8!8086!60620
00006060
00000000
0006!60600
80608000
6!60600060
00000060
0006!60600
60006862!2
0000A070
40006030
00000000
00000000
00000000
00000606
80200060
00800024
20800060
00200006
00006060
00000000
00000000
00000000
60600000
80602828
4!40020070
2!2026!60680
00006060
00000000
0006!60600
20802000
6!60600060
00000060
0006!60600
60008086!6
00000000
60000000
:
00000000
00000000
00000000
00000000
00000000
00000000
00004040
04040040
00400020
00800026
20800020
00400040
00000000
00000000
00000000
00000040
40400000
20408282
6!60040030
8!8084!40420
00004040
00000000
00000000
00000000
40400000
426040B0
2!20200040
00000040
0004!40400
80408000
4!40400040
40000000
00000000
00000000
00400080
00200086
80200080
00400040
00000000
00000000
00000000
00000040
40400000
80402828
6!60040090
2!2024!40480
00004040
00000000
00000000
00000000
40400000
486040B0
8!80800040
00000040
0004!40400
20402000
4!40400040
40000400
00000000
00000000
;
#DOUBLE:BASIC:3:
00000000
00000000
00000000
00000000
4!40004000
2!20002000
6!60006000
00006000
00000000
00000000
00000000
00000000
00600000
00600000
00200060
00200060
00800020
80208020
6!60606000
00600000
00000000
00000060
00000000
60006000
20004000
80608060
00000000
00000000
00006000
00600000
80006000
B0000000
6!60006000
00000000
00000000
00000000
00000000
00000000
00600000
00600000
00800060
00800060
00200080
20802080
6!60606000
00600000
00000000
00000060
00000000
60006000
80004000
20602060
00000000
00000000
00006000
00600000
20006000
B0000000
2!20000020
:
00000000
00000000
00000000
00000000
00000000
00000000
00000000
00400040
00200080
00200080
00400020
00400020
00000040
00000040
00000000
00000000
00000000
00000000
00000000
40004000
20006000
80004000
4!40404000
00400000
00000000
00000000
40002000
80208000
40000000
40004000
00000000
00000000
00000000
4!40004000
00800020
00800020
00400080
00400080
00000040
00000040
00000000
00000000
00000000
00000000
00000000
40004000
80006000
20004000
4!40404000
00400000
00000000
00000000
40008000
20802000
40000000
40004000
00000000
00000000
00000000
;
