#TITLE:THE BEST OF BOTH WORLDS;
#ARTIST:HANNAH MONTANA;
#FILE:THE BEST OF BOTH WORLDS.mp3;
#BPM:124.000;
#GAP:48;
#SAMPLESTART:34.099;
#SAMPLELENGTH:15.000;
#CDTITLE:./CDTITLES/Dance Dance Revolution Disney Channel Edition.png;
#SINGLE:BEGINNER:1:
00000000
00000000
20000000
B0000000
20002000
B0000000
60006000
40000000
20008000
20000000
60006000
40000000
20008000
20000000
80008000
20002000
80008000
B0000000
60606000
40404000
B0000000
A0000000
60606000
40404000
80008000
20002000
20000000
B0000000
80000000
B0000000
40004000
60000000
80002000
80000000
40004000
60000000
80002000
80000000
20002000
60006000
20002000
B0000000
60606000
40404000
B0000000
A0000000
60606000
40404000
60004000
60004000
20002000
B!B00000B0
;
#SINGLE:BASIC:3:
00000000
00000000
6!60000060
4!40000040
8!80000080
2!20000020
60406000
20008000
40208060
2!20002000
40604000
80002000
60802040
8!80008000
B0002000
A0006000
B0002000
6040B000
80206040
80206040
8!80804!4040
6!60602!2020
80206040
80206040
A000B000
60802040
6!60000060
4!40000040
8!80000080
2!20000020
40602000
80004000
80402060
2!20000020
40802000
60004000
80602040
2!20000020
B0002000
A0004000
B0008000
2080A000
60208040
60208040
2!20208!8080
6!60604!4040
60208040
60208040
B000A000
40206020
4!40408!8080
2!20206040
B0000000
;
#SINGLE:ANOTHER:5:
00000000
00000000
206040A0
20604000
60408020
B!B00000B0
264!40B!6060
8!8020A000
42802040
3!60000060
84604080
2!20603000
28406080
8!80000080
64602030
848060B0
28204640
6!603!20A000
2!20406010
8!802060A0
84260010
286200A0
4!406020B0
2!208040A0
42806240
84209010
206040A0
20604000
60408020
B!B00000B0
628!807!4040
6!60809000
28406020
B!40000040
26402060
2!2080A000
84208060
1!20000020
86802010
646020A0
28406240
6!603!20A000
8!80402070
2!208060A0
46240030
64260010
6!604080B0
2!20604030
42806820
40609010
262080A0
62402!2080
A0000000
;
#SINGLE:MANIAC:7:
00000000
00000000
84648400
26862400
82648262!2
00000200
703020B0
08420086
20646242!2
0A!8000800
103020A0
40208064
20624282!2
0A!8000080
68408260
62408260
48608240
2888A000
46468280
90106!60B!40
72680082
48240264
82826460
10308!807!40
B2426284
262482B0
26462600
84248600
28462842!2
00000020
907060B0
60802048
20682624!4
07!8000080
10A06090
40602084
20826482!2
03!6000060
68408260
62408260
48608240
2888A000
42468620
B0A08!807!40
16280062
84820648
26264840
90A04!40B!60
38468!80A!20
1!406020B0
8!80A!201!40B2
42628420
B0000000
;
#DOUBLE:BASIC:3:
00000000
00000000
20008000
00006000
00000000
00000000
00000000
60008000
40602000
B0000000
20600000
00000000
00000000
00000000
00000000
00006!6060
2!20204!4040
8!80000080
60006000
00000000
00000000
00000000
00600060
20402040
6!60608!8080
00006!6060
60000000
00000000
00000000
6!60000060
60206000
00000000
00600000
60000000
80408000
20006000
60006000
A0000000
4!40402!2020
6!60600000
00000000
00000000
00000000
00000000
00006!6060
00008!8080
60406040
20802080
6!60604!4040
2!20206!6060
00000000
00000000
60000000
:
00000000
00000000
00000000
40000000
40002000
B0000000
60204000
00000000
00000000
00000000
00004000
20008000
40602000
B0000000
6!60602!2020
4!40400000
00000000
00000000
00400040
20602060
8!80806!6060
2!20204!4040
40004000
00000000
00000000
4!40400000
40004000
20006000
20004000
00000000
00000000
40002000
40004000
40000000
00000000
00000000
00400000
00000000
00000000
00004!4040
2!20206!6060
8!80000080
60406040
20802080
2!20200000
4!40400000
00000000
00000000
00000000
00000000
40206000
80602040
00000000
;
#DOUBLE:ANOTHER:6:
00000000
00000000
00006020
20600000
00006020
B!B00000B0
42600000
06000000
00000000
06!6000060
06262040
8!80000906
00000000
00000000
00006000
60208064
40602686!6
00000B26
00000000
00000000
00000006
06260048
20608024!4
0B!6000060
80606060
00000000
00006020
20600000
00006020
B!B00000B0
84206000
00000000
00606000
00000000
00000000
60000000
60242824!4
07!8000080
60200066
00000000
00000000
00000000
60204082!2
03!6000060
84260060
60000000
00000000
00000000
06060060
0002!20020
80402060
00000000
00000000
:
00000000
00000000
20400000
00004020
20400000
00000000
00004!4000
04480000
20608242!2
02000000
40000000
00000040
80206242
06!6000060
40200044
00000000
00000000
00000000
40206082!2
01!4000040
86240040
40000000
00000000
00000000
04040040
42608!809!60
30400000
00004020
20400000
00000000
00000040
80600046
40040042!2
0A!8000076
26400020
00402040
00000000
00000000
00004000
40208046
60402484!4
00000B24
00000000
00000000
00000004
04240062
80406028!8
07!4000040
20404040
04!4040000
00000000
40806020
B0000000
;
#DOUBLE:MANIAC:7:
00000000
00000000
00000000
62484800
60000000
00000000
0000006!60
608!809!60B!40
72680606!6
00000060
00000000
006!609!80A!20
34826426!6
00000060
60600000
00000620
46408600
60000000
00060600
00000000
60620060
62420000
8620602!20
3!60B!40B!603!20
A4242626
06000000
00000000
62484800
60000000
00000000
0000006!60
608!809!603!20
34286284!4
02!2000010
82060000
00000000
00006060
00000000
00000060
28206480
42406820
8248A000
6806086!60
3!20206!6060
00060000
06860000
00000000
00000000
62482060
02060006
00000000
00624820
B0000000
:
00000000
00000000
86242400
00000000
04282846!6
00000060
464!401!2020
4!40400000
00004040
02!2000020
46428624!4
00400000
00000000
04!4000040
04002860
24204000
00000040
0428A000
8420402!20
1!40B!60B!401!20
24000004
00000000
00040400
00000000
00000000
40424260
86242400
00000000
04282846!6
00000060
424!401!2020
4!40400000
00000000
00000000
004007!700
706!60B!40B!60
38420402!2
04!4000010
62602400
00000000
00000000
00000000
00404000
004!40402!20
12400042
40000000
4268242!20
1!40B!603!201!40
40000000
04040000
4!401!203!6096
24000000
00000000
;
