#TITLE:THAT'S SO RAVEN THEME SONG;
#ARTIST:THAT'S SO RAVEN;
#FILE:THAT'S SO RAVEN THEME SONG.mp3;
#BPM:125.000;
#GAP:40;
#SAMPLESTART:0.020;
#SAMPLELENGTH:15.000;
#CDTITLE:./CDTITLES/Dance Dance Revolution Disney Channel Edition.png;
#DISPLAYBPM:123..126;
#CHANGEBPM:80.000=124.000,96.000=125.000,368.000=124.000,416.000=125.000,640.000=124.000,656.000=125.000,752.000=126.000;
#SINGLE:BEGINNER:1:
00000000
00000000
00000000
00000000
60004000
80000000
40000000
60000000
60004000
B0000000
B0000000
A0000000
A0000000
80004000
60000000
20004000
60000000
60006000
40004000
20008000
20006000
40004000
60008000
20004000
60004000
40000000
60000000
80000000
20004000
80000000
60000000
40000000
20002000
B0000000
B0000000
A0000000
A0000000
20006000
40000000
80006000
40000000
40004000
60006000
80002000
80004000
60006000
40002000
80006000
40006000
B0000000
;
#SINGLE:BASIC:4:
00000000
00000000
00000000
40604000
60802040
20802000
40608040
20006000
40406060
80006040
20804060
A000A000
60402060
80004000
60002000
80004060
80204060
408040A0
60804020
6040A0B0
60802000
A0B020A0
40806020
60408020
60604000
8040602!20
00002060
40208060
20804060
60802040
A!A00000A0
40202060
80802000
40406060
20406080
60008000
40B020A0
40006000
20008000
60400080
20806060
402060A0
40206080
4060A0B0
40208000
A0B080A0
60204080
40602080
40406080
A0000000
;
#SINGLE:ANOTHER:6:
00000000
00000000
00000000
40604000
60802040
20802000
40602000
60408080
40208060
10806000
90204000
B000A000
60602020
40802000
60208000
40206000
60804000
8420909!90
00000090
2680101!10
00000010
8680A010
80206480
2420A090
20804620
80406260
80201000
20604240
60802040
20604840
20809000
80406860
40208060
90204000
10806000
B000A000
40408080
60208000
40802000
60804000
40206000
2680101!10
00000010
8420909!90
00000090
2420A090
20804620
8680A010
80206480
A!A00000A0
;
#SINGLE:MANIAC:7:
00000000
00000000
00000000
40608000
4!40B!603!20A!80
(7008002!2000002000)
(6004006000002000)
6!60000060
40208060
48206080
46208040
64208060
6!609!80A!2010
106460A0
90240860
904640A0
10860240
A0A0B0A0
84604620
B0B0A0B0
26406480
30109070
42606240
70309010
68404860
(6002008!8000008000)
(4006004!4000007000)
(2008006!6000006000)
20406080
(4002006!6000006000)
(2004008!800000A000)
(6008002!2000001000)
80604020
62804020
64802060
46802040
4!401!20A!8090
62804020
64802060
46802040
6!609!80A!2010
A0A0B0A0
26406480
B0B0A0B0
84604620
70901030
68404860
30701090
42606240
B!B00000B0
;
#DOUBLE:BASIC:2:
00000000
00000000
00000000
00000000
60808000
40008000
00606000
00000000
00000000
00000000
60002000
40008000
60600000
00000000
00000000
00006000
20408000
B0606000
80000000
60606000
00000000
00000000
00006000
60000000
20008000
20008000
40202000
80000000
60000000
00000000
00000000
00006000
80202000
40006000
20000000
60000000
00000000
00000000
00000000
60000000
80602000
B0404000
20000000
60000000
00000000
00000000
00000000
00006000
80402000
B0000000
:
00000000
00000000
00000000
60002000
00000000
00000000
40000000
80002000
60006000
80004000
00000000
00000000
00004040
80002000
60008020
40000000
00000000
00000000
00004000
40000000
20008000
B0404000
80000000
40404000
00000000
00000000
00000000
00004000
00202000
80006000
2!20000020
40000000
00000000
00000000
00004000
00008000
20006060
20008000
40006020
00004000
00000000
00000000
00004000
40404000
20008000
A0202000
60008000
40000000
00000000
00000000
;
#DOUBLE:ANOTHER:4:
00000000
00000000
00000000
40002000
60000000
00000000
00000000
00006000
80406020
00006000
00000000
00000000
00602040
A0002000
60006000
00000000
00206040
B0200060
00000000
00006000
20604060
B0200060
00000000
00006000
2060A0B0
20808000
40002000
60000000
00000000
00608020
A!A00000A0
40206000
00000000
00000000
00000000
00006000
B000A000
B0002000
60006000
00000000
00206040
B0200060
00000000
00006000
A0406020
00000000
00000000
600020B0
20806040
B0000000
:
00000000
00000000
00000000
00000000
00404000
80202000
60008000
40000000
00000000
40000000
80406000
20006000
40000000
00000000
00400080
60002000
40000000
00004000
80406040
B0800040
00000000
00004000
80406040
B0200040
00000000
00000000
00000000
00004000
20604080
40000000
00000000
00000000
40802000
60006000
20004000
20000000
00000000
00000000
00400080
60002000
40000000
00004000
80406040
B0200040
00000000
40802040
B0804020
00400000
00000000
00000000
;
#DOUBLE:MANIAC:7:
00000000
00000000
00000000
(0000000000006000)
8!807!401!20A!80
(9000006!6000006000)
(0000000000000000)
00006020
60402080
26006000
00000000
00000060
062!20A!8070
80246080
90600000
00000000
00609024
2!203!606000
00000000
00006!603!20
A0806420
30600000
00000000
006030B0
48684060
(2006000000006000)
(6000000000000000)
(0000006!6000006000)
80A040B0
(8002000000006000)
(6000000000000000)
00006!6060
603010B0
82006000
00000000
00000620
4!401!20A!8090
80246080
60600000
00000000
00606024
2!203!606000
00000000
00000000
006030B0
48684060
30600000
00000000
00000000
00000000
:
00000000
00000000
00000000
(6002004000000000)
00000000
(0004000000000000)
(8002006020004000)
80400000
00000000
00400480
48202460
28402400
40000000
00000000
00401086
20864020
10400000
00004!407!80
A0204680
8!807!404000
00000000
004070B0
62426040
70400000
00000000
(0000004!4000004000)
(0008004!400000B000)
(8002000000004000)
00000000
(0000004!4000004000)
(0008006!6000003000)
82404!4040
00000000
00400420
42602460
28404000
00000000
00000000
00404086
20846020
40400000
00004!407!80
A0204680
8!807!40B!6030
70400000
00000000
004070B0
62426040
60428680
10000000
;
