#TITLE:M.C. Mickey;
#SUBTITLE:;
#ARTIST:Disney Grooves;
#TITLETRANSLIT:;
#SUBTITLETRANSLIT:;
#ARTISTTRANSLIT:;
#CREDIT:;
#BANNER:M.C. Mickey.png;
#BACKGROUND:M.C. Mickey-bg.png;
#LYRICSPATH:;
#CDTITLE:./CDTITLES/DanceDanceRevolution Disney Grooves.png;
#MUSIC:M.C. Mickey.mp3;
#OFFSET:-0.032;
#SAMPLESTART:38.680;
#SAMPLELENGTH:15.000;
#SELECTABLE:YES;
#BPMS:0.000=99.380;
#STOPS:;
#BGCHANGES:;

//---------------dance-single - ----------------
#NOTES:
     dance-single:
     :
     Beginner:
     1:
     0.069,0.080,0.038,0.000,0.000:
0000
0000
0000
0000
,
0000
0000
0000
0000
,
0000
0000
0000
0000
,
0000
0000
0000
0000
,
0001
0000
0000
0000
,
0010
0000
0000
0000
,
1000
0000
0000
0000
,
0010
0000
0000
0000
,
1000
0000
0000
0000
,
0100
0000
0000
0000
,
0001
0000
0000
0000
,
0100
0000
0000
0000
,
1001
0000
0000
0000
,
0000
0000
0000
0000
,
1001
0000
0000
0000
,
0000
0000
0000
0000
,
1000
0000
1000
0000
,
0001
0000
0001
0000
,
0000
0100
0000
0000
,
0000
0100
0000
0000
,
0001
0000
0001
0000
,
1000
0000
1000
0000
,
0000
0100
0000
0000
,
0000
1001
0000
0000
,
0001
0000
0000
0000
,
0010
0000
0000
0000
,
1000
0000
0000
0000
,
0010
0000
0000
0000
,
1000
0000
0000
0000
,
0100
0000
0000
0000
,
0001
0000
0000
0000
,
0100
0000
0000
0000
,
1000
0000
1000
0000
,
0001
0000
0001
0000
,
0000
0100
0000
0000
,
0000
0100
0000
0000
,
0001
0000
0001
0000
,
1000
0000
1000
0000
,
0000
0100
0000
0000
,
0000
1001
0000
0000
,
1000
0000
1000
0000
,
0001
0000
0001
0000
;

//---------------dance-single - ----------------
#NOTES:
     dance-single:
     :
     Easy:
     2:
     0.132,0.160,0.029,0.192,0.000: // measure 1
0000
0000
0000
0000
,  // measure 2
0000
0000
0000
0000
,  // measure 3
0000
0000
0000
0000
,  // measure 4
0000
0000
0000
0000
,  // measure 5
0010
0000
1000
0000
,  // measure 6
0010
0000
0001
0000
,  // measure 7
1000
0000
0010
0000
,  // measure 8
0001
0000
0100
0000
,  // measure 9
0010
0000
0001
0000
,  // measure 10
0010
0000
1000
0000
,  // measure 11
0001
0000
0010
0000
,  // measure 12
1000
0000
0100
0000
,  // measure 13
1001
0000
0000
0000
,  // measure 14
0001
0000
1000
0000
,  // measure 15
1001
0000
0000
0000
,  // measure 16
1000
0000
0001
0000
,  // measure 17
2000
3000
0002
0003
,  // measure 18
0002
0003
2000
3000
,  // measure 19
0000
0100
0100
0000
,  // measure 20
0000
0010
0010
0000
,  // measure 21
0002
0003
2000
3000
,  // measure 22
2000
3000
0002
0003
,  // measure 23
0000
0001
0000
1000
,  // measure 24
0000
1001
0000
0000
,  // measure 25
0100
0000
0001
0000
,  // measure 26
0100
0000
1000
0000
,  // measure 27
0001
0000
0100
0000
,  // measure 28
1000
0000
0010
0000
,  // measure 29
0100
0000
1000
0000
,  // measure 30
0100
0000
0001
0000
,  // measure 31
1000
0000
0100
0000
,  // measure 32
0001
0000
0010
0000
,  // measure 33
0002
0003
2000
3000
,  // measure 34
2000
3000
0002
0003
,  // measure 35
0000
0100
0100
0000
,  // measure 36
0000
0010
0010
0000
,  // measure 37
2000
3000
0002
0003
,  // measure 38
0002
0003
2000
3000
,  // measure 39
0000
0010
0010
0000
,  // measure 40
0000
0100
0100
0000
,  // measure 41
0002
0003
2000
3000
,  // measure 42
2000
3000
0002
0003
;

//---------------dance-single - ----------------
#NOTES:
     dance-single:
     :
     Medium:
     4:
     0.156,0.160,0.038,0.096,0.000:
0000
0000
0000
0000
,
0000
0000
0000
0000
,
0000
0000
0000
0000
,
0000
0000
0000
0000
,
0001
0000
0100
1000
,
1000
0000
0100
0001
,
0100
0000
0010
0100
,
0010
0000
0100
0000
,
1000
0000
0100
0001
,
0001
0000
0100
1000
,
0100
0000
0010
0100
,
0010
0000
0100
0000
,
1001
0000
0100
0000
,
0001
0000
1000
0001
,
1001
0000
0100
0000
,
1000
0000
0001
1000
,
2000
3000
0100
0100
,
0002
0003
0100
0100
,
0000
1000
0000
0010
,
0000
0001
0000
0100
,
0002
0003
0100
0100
,
2000
3000
0100
0100
,
0000
0001
0000
0100
,
0000
1000
0000
1001
,
1000
0000
0100
0001
,
0001
0000
0100
1000
,
0100
0000
0010
0100
,
0010
0000
0100
0000
,
0001
0000
0100
1000
,
1000
0000
0100
0001
,
0100
0000
0010
0100
,
0010
0000
0100
0000
,
0002
0003
0100
0100
,
2000
3000
0100
0100
,
0000
0001
0000
0010
,
0000
1000
0000
0100
,
2000
3000
0100
0100
,
0002
0003
0100
0100
,
0000
1000
0000
0100
,
0000
0001
0000
1001
,
2000
3000
0100
0100
,
0002
0003
0100
0100
;

//---------------dance-single - ----------------
#NOTES:
     dance-single:
     :
     Hard:
     6:
     0.250,0.261,0.077,0.096,0.000:
0000
0000
0000
0000
,
0000
0000
0000
0000
,
0000
0000
0000
0000
,
0000
0000
0000
0000
,
0100
1000
0100
1000
,
0010
1000
0010
0100
,
1000
0100
0010
0100
,
1000
0000
0100
0000
0010
0100
0001
0000
,
0100
0001
0100
0001
,
0010
0001
0010
0100
,
0001
0100
0010
0100
,
0001
0000
0100
0000
0010
0100
1000
0000
,
1001
0000
0010
0100
,
0010
1000
0010
0001
,
1001
0000
0100
0010
,
0100
0001
0100
1000
,
0002
0000
0103
0000
0010
0010
0100
0000
,
0002
0000
1003
0000
0100
0100
0010
0000
,
0001
1100
1000
0100
,
1000
0010
0100
0001
,
0002
0000
0013
0000
0100
0100
0010
0000
,
0002
0000
1003
0000
0010
0010
0100
0000
,
0001
1010
1000
0010
,
1000
0100
0010
1001
,
0010
1000
0010
1000
,
0100
1000
0100
0010
,
1000
0010
0100
0010
,
1000
0000
0010
0000
0100
0010
0001
0000
,
0010
0001
0010
0001
,
0100
0001
0100
0010
,
0001
0010
0100
0010
,
0001
0000
0010
0000
0100
0010
1000
0000
,
2000
0000
3100
0000
0010
0010
0100
0000
,
2000
0000
3001
0000
0100
0100
0010
0000
,
1000
0101
0001
0100
,
0001
0010
0100
1000
,
2000
0000
3010
0000
0100
0100
0010
0000
,
2000
0000
3001
0000
0010
0010
0100
0000
,
1000
0011
0001
0010
,
0001
0100
0010
1001
,
0002
0000
0013
0000
0100
0100
0010
0000
,
0002
0000
1003
0000
0010
0010
0100
0000
;
