#TITLE:JUMP TO THE RHYTHM;
#SUBTITLE:;
#ARTIST:JUMP IN;
#TITLETRANSLIT:;
#SUBTITLETRANSLIT:;
#ARTISTTRANSLIT:;
#CREDIT:;
#BANNER:JUMP TO THE RHYTHM.png;
#BACKGROUND:JUMP TO THE RHYTHM-bg.png;
#LYRICSPATH:;
#CDTITLE:./CDTITLES/Dance Dance Revolution Disney Channel Edition.png;
#MUSIC:JUMP TO THE RHYTHM.mp3;
#OFFSET:-0.141;
#SAMPLESTART:8.168;
#SAMPLELENGTH:15.000;
#SELECTABLE:YES;
#BPMS:0.000=108.000;
#STOPS:;
#BGCHANGES:;

//---------------dance-single - ----------------
#NOTES:
     dance-single:
     :
     Beginner:
     1:
     0.100,0.108,0.011,0.000,0.000:
0000
0000
0000
0000
,
0000
0000
0000
0000
,
0000
0000
0000
0000
,
0000
0000
0000
0000
,
1000
0000
0010
0000
,
0100
0000
0100
0000
,
0001
0000
0010
0000
,
0100
0000
0100
0000
,
1000
0000
0001
0000
,
0100
0000
0000
0000
,
0010
0000
1000
0000
,
0001
0000
0000
0000
,
0100
0000
1000
0000
,
0010
0000
0000
0000
,
0100
0000
0001
0000
,
0010
0000
0000
0000
,
1001
0000
0100
0000
,
0010
0000
0000
0000
,
0001
0000
0010
0000
,
0100
0000
0000
0000
,
1000
0000
0001
0000
,
0100
0000
0000
0000
,
0010
0000
1000
0000
,
0001
0000
0000
0000
,
0000
0010
0000
0100
,
0000
0010
0000
0100
,
0000
1000
0000
0001
,
0000
1000
0000
0001
,
0000
0100
0000
0010
,
0000
0100
0000
0010
,
0000
1000
0000
0100
,
0000
0001
0000
0010
,
0000
0100
0000
0010
,
0000
0100
0000
0010
,
0000
0001
0000
1000
,
0000
0001
0000
1000
,
0000
0010
0000
0100
,
0000
0010
0000
0100
,
0000
1000
0000
0010
;

//---------------dance-single - ----------------
#NOTES:
     dance-single:
     :
     Easy:
     3:
     0.206,0.241,0.100,0.122,0.000:
0000
0000
0000
0000
,
0000
0000
0000
0000
,
0000
0000
0000
0000
,
0000
0000
0000
0000
,
1000
0000
0001
0000
,
0100
0010
0100
0000
,
0001
0000
1000
0000
,
0100
0010
0100
0000
,
1001
0000
0001
0100
,
1000
0000
1000
0010
,
0002
0003
2000
3000
,
0010
0100
0010
0100
,
0001
0001
1000
1000
,
0000
0100
0010
0100
,
2000
3000
0002
0003
,
0100
0010
0100
0010
,
1000
1000
0100
0010
,
0002
0000
0003
1000
,
0001
0001
0100
0010
,
2000
0000
3000
0100
,
0001
0010
0100
1000
,
0020
0000
0030
0100
,
0001
0000
1000
0000
,
0100
0110
0000
0000
,
0001
0011
0010
0100
,
1000
0001
1000
0001
,
0100
0101
0100
0010
,
2000
3000
0002
0003
,
1000
1001
0001
1001
,
1000
0100
0010
0001
,
0100
1000
0100
0001
,
2000
0000
3001
1001
,
0000
0100
0000
0100
,
0000
0100
0010
0001
,
0100
0010
0000
0010
,
0000
0010
1000
0001
,
1000
1001
0001
1001
,
1000
0010
0100
0001
,
1000
0001
1000
0100
,
0020
0000
0030
0000
;

//---------------dance-single - ----------------
#NOTES:
     dance-single:
     :
     Medium:
     5:
     0.298,0.307,0.222,0.156,0.000:
0000
0000
0000
0000
,
0000
0000
0000
0000
,
0000
0000
0000
0000
,
0000
0000
0000
0000
,
0100
1000
0010
1000
,
0001
0100
0001
0000
0010
0001
0100
0000
,
0010
1000
0100
1000
,
0010
1000
0010
0000
0100
0001
0010
0000
,
0200
1000
0310
0001
,
0100
0000
0100
0000
0010
1000
0001
0000
,
0200
0010
0001
0310
,
2000
0100
0001
3100
,
0020
0001
0100
1030
,
0010
0000
0010
0000
0100
0001
1000
0000
,
0200
0010
1000
0310
,
0002
0100
1000
0103
,
1001
0000
0000
0000
0110
0000
0000
0100
,
0000
0010
0000
0100
0000
0010
0100
0000
,
1100
0000
0000
0000
0101
0000
0000
0001
,
0000
0100
0000
0001
0000
0100
0001
0000
,
0011
0000
0000
0000
1010
0000
0000
0010
,
0000
1000
0000
0010
0000
1000
0000
0010
,
0100
0000
0001
0000
1000
0000
0010
1000
,
0100
0010
0001
0000
0000
0000
0000
0000
,
1000
0000
1010
0000
0001
0000
0101
0100
,
0000
0001
0001
0000
0020
0000
0130
0000
,
1000
0000
1100
0000
0010
0000
0011
0002
,
0000
0100
0000
1000
0000
0013
0000
1000
,
0001
0000
0110
0000
1000
0000
0110
0010
,
0000
0100
0100
0000
0002
0000
0013
0000
,
0100
1000
0100
0000
0001
0100
0001
0020
,
0000
0130
1100
0011
,
0100
0000
0101
0000
1000
0000
1010
0010
,
0000
1000
1000
0000
0200
0000
0310
0000
,
0001
0000
0011
0000
0100
0000
1100
2000
,
0000
0010
0000
0001
0000
3100
0000
0001
,
1000
0000
0110
0000
0001
0000
0110
0100
,
0000
0010
0010
0000
2000
0000
3100
0000
,
0010
0001
0010
0000
1000
0010
1000
0200
,
0000
0000
0300
0000
;

//---------------dance-single - ----------------
#NOTES:
     dance-single:
     :
     Hard:
     7:
     0.375,0.373,0.344,0.111,0.083: // measure 1
0000
0000
0000
0000
,  // measure 2
0000
0000
0000
0000
,  // measure 3
0000
0000
0000
0000
,  // measure 4
0000
0000
0000
0000
0000
0000
0000
1000
,  // measure 5
0000
0000
0001
0000
0000
0000
1000
0000
0100
0000
0010
0000
0100
0000
0000
1000
,  // measure 6
0000
0000
1000
0000
0001
0000
0000
0001
0000
0000
0001
0000
1000
0000
0000
0000
,  // measure 7
1001
0000
0000
0000
0010
0000
0001
0000
0100
0000
0010
0000
1000
0000
0000
0100
,  // measure 8
0000
0000
0010
0000
0100
0000
0000
1000
0000
0000
0001
0000
0100
0000
0001
0000
,  // measure 9
0010
0000
0000
0000
1010
0000
0000
0000
0101
0000
0000
0000
1000
0000
0000
0100
,  // measure 10
0000
0000
0100
0000
0010
0000
0000
0001
0000
0000
0001
0000
0100
0000
0000
0000
,  // measure 11
0010
0000
0000
0000
0011
0000
0000
0000
1100
0000
0000
0000
0001
0000
0000
0100
,  // measure 12
0000
0000
0100
0000
0010
0000
0000
1000
0000
0000
1000
0000
0100
0000
0000
0000
,  // measure 13
0110
0000
0000
0000
1001
0000
0000
0000
0100
0000
0010
0000
0001
0000
0000
1000
,  // measure 14
0000
0000
1000
0000
0100
0000
0000
0001
0000
0000
0001
0000
0100
0000
0000
0000
,  // measure 15
1000
0000
0000
0000
1010
0000
0000
0000
0101
0000
0000
0000
1000
0000
0000
0010
,  // measure 16
0000
0000
0010
0000
0100
0000
0000
0001
0000
0000
0001
0000
0010
0000
0001
0000
,  // measure 17
2000
0000
3002
0000
0103
0010
0100
0001
,  // measure 18
0000
0010
1000
0010
0000
0001
0010
0001
,  // measure 19
2000
0000
3002
0000
0103
0010
0100
0001
,  // measure 20
0000
1000
0010
1000
0000
0001
0010
0001
,  // measure 21
0200
0000
0000
0000
0310
0000
1000
0000
0010
0000
0100
0000
0002
0000
0000
1000
,  // measure 22
0000
0000
1003
0000
2000
0000
0000
0001
0000
0000
3001
0000
0010
0000
0100
0000
,  // measure 23
1000
0000
0000
0000
0001
0000
0100
0000
0010
0000
0100
0000
0001
0000
0000
1000
,  // measure 24
0000
0002
2000
0000
0000
0000
3003
0000
,  // measure 25
0011
0110
1100
0110
,  // measure 26
0001
0010
0100
0000
1000
0010
0100
0001
,  // measure 27
0010
0101
1000
0011
,  // measure 28
0100
1010
0001
1100
,  // measure 29
0010
0001
1000
0100
0010
0100
1000
0001
,  // measure 30
0100
1010
0110
0101
,  // measure 31
0010
0001
0100
0001
1000
0100
1000
0010
,  // measure 32
0100
0010
1001
0110
,  // measure 33
1000
0110
0001
0110
,  // measure 34
1000
0001
0010
0000
0100
1000
0001
1000
,  // measure 35
0010
1010
0001
0011
,  // measure 36
0100
1100
0001
0101
,  // measure 37
0100
0010
1000
0001
0100
0001
1000
0100
,  // measure 38
0010
0011
0110
1100
,  // measure 39
0100
1000
0010
1000
0001
0010
0001
0200
,  // measure 40
0000
0000
0300
0000
;

//---------------dance-double - ----------------
#NOTES:
     dance-double:
     :
     Easy:
     3:
     0.206,0.241,0.100,0.122,0.000:
00000000
00000000
00000000
00000000
,
00000000
00000000
00000000
00000000
,
00000000
00000000
00000000
00000000
,
00000000
00000000
00000000
00000000
,
10000000
00000000
01000000
00000000
,
00100000
00010000
00100000
00000000
,
00001000
00000000
00010000
00000000
,
00000010
00001000
00000010
00000000
,
00001001
00000000
00000001
00000100
,
00000010
00000000
00001000
00000100
,
00020000
00030000
00002000
00003000
,
00100000
00010000
00100000
01000000
,
10000000
00100000
01000000
01000000
,
00000000
00010000
00100000
00001000
,
00020000
00030000
00002000
00003000
,
00000100
00000010
00000100
00000010
,
00001000
00001000
00000001
00000100
,
00002000
00000000
00003000
00010000
,
01000000
01000000
00100000
00010000
,
20000000
00000000
30000000
00100000
,
01000000
00001000
00010000
00000100
,
00002000
00000000
00003000
00000001
,
00000010
00000000
00000001
00000000
,
00001000
00001001
00000000
00000000
,
00000100
00000110
00000100
00001000
,
00000010
00010000
00001000
00100000
,
00010000
10010000
10000000
00100000
,
02000000
03000000
00020000
00030000
,
00100000
01100000
01000000
01100000
,
00100000
00001000
00010000
00000010
,
00000100
00001000
00000100
00000001
,
00002000
00000000
00003001
00001001
,
00000000
00000100
00000000
00001000
,
00000000
00010000
00001000
00100000
,
00001000
00010000
00000000
01000000
,
00000000
10000000
00010000
10000000
,
00100000
01100000
01000000
01100000
,
00100000
00010000
00001000
00000100
,
00000001
00001000
00000001
00001000
,
00000200
00000000
00000300
00000000
;

//---------------dance-double - ----------------
#NOTES:
     dance-double:
     :
     Medium:
     5:
     0.298,0.307,0.222,0.156,0.000:
00000000
00000000
00000000
00000000
,
00000000
00000000
00000000
00000000
,
00000000
00000000
00000000
00000000
,
00000000
00000000
00000000
00000000
,
00000010
00000001
00001000
00000100
,
00010000
00001000
00100000
00000000
00001000
00010000
00000100
00000000
,
00010000
00001000
01000000
00010000
,
01000000
00100000
10000000
00000000
00010000
01000000
00100000
00000000
,
20000000
00010000
31000000
00100000
,
00010000
00000000
01000000
00000000
00001000
00010000
00001000
00000000
,
00000200
00000001
00000010
00001300
,
00000020
00000001
00000100
00001030
,
00020000
00001000
00130000
10000000
,
01000000
00000000
00100000
00000000
00010000
00100000
00001000
00000000
,
00000200
00001000
00000010
00000301
,
00000020
00001000
00000100
00000031
,
00000101
00000000
00000000
00000000
00001100
00000000
00000000
00010000
,
00000000
00001000
00000000
00010000
00000000
01000000
10000000
00000000
,
10100000
00000000
00000000
00000000
00110000
00000000
00000000
00001000
,
00000000
00010000
00000000
00001000
00000000
00000010
00000001
00000000
,
00001001
00000000
00000000
00000000
00011000
00000000
00000000
00100000
,
00000000
10000000
00000000
01000000
00000000
00010000
00000000
01000000
,
10000000
00000000
00100000
00000000
00010000
00000000
00001000
00010000
,
00000100
00001000
00000001
00000000
00000000
00000000
00000000
00000000
,
00000100
00000000
00000101
00000000
00001100
00000000
00000100
00010000
,
00000000
00010000
00001000
00000000
02000000
00000000
03010000
00000000
,
00100000
00000000
00110000
00000000
10100000
00000000
00010000
00002000
,
00000000
01000000
00000000
00100000
00000000
00013000
00000000
00001000
,
00000100
00000000
00000110
00000000
00001001
00000000
00000001
00000100
,
00000000
00000100
00001000
00000000
00020000
00000000
00130000
00000000
,
10000000
01000000
00100000
00000000
00010000
01000000
00200000
00000000
,
00310000
00001000
00101000
00010100
,
00001000
00000000
00000011
00000000
00001010
00000000
00000010
00010000
,
00000000
00010000
00001000
00000000
00200000
00000000
00310000
00000000
,
01000000
00000000
01010000
00000000
11000000
00000000
00010000
00002000
,
00000000
00100000
00000000
01000000
00000000
00013000
00000000
00001000
,
00000010
00000000
00000110
00000000
00001001
00000000
00000001
00000010
,
00000000
00000010
00001000
00000000
00020000
00000000
01030000
00000000
,
10000000
00100000
01000000
00000000
00010000
00100000
01000000
20000000
,
00000000
00000000
30000000
00000000
;

//---------------dance-double - ----------------
#NOTES:
     dance-double:
     :
     Hard:
     6:
     0.370,0.373,0.333,0.133,0.022:
00000000
00000000
00000000
00000000
,
00000000
00000000
00000000
00000000
,
00000000
00000000
00000000
00000000
,
00000000
00000000
00000000
00000000
,
00011000
00000000
00000000
00000000
00001000
00000000
00010000
00000000
00000100
00000000
00010000
00000000
00000010
00000000
00000000
00000100
,
00000000
00000001
00000000
00000100
00001000
00000000
00010000
00000000
,
00011000
00000000
00000000
00000000
00010000
00000000
00001000
00000000
00100000
00000000
00001000
00000000
01000000
00000000
00000000
00100000
,
00000000
10000000
00000000
00100000
00010000
00001000
00010000
00000000
,
00021000
00000000
00000000
00000000
00030000
00000000
00000100
00000000
00001000
00000000
00000010
00000000
00000100
00000000
00000000
00001000
,
00000000
00000100
00000000
00000010
00000100
00000001
00000100
00001000
,
00010000
00011000
00100000
00110000
,
01000000
00000000
11000000
00000000
00010000
00000000
01010000
01000000
,
00001000
00000000
00000000
00000000
00010000
00000000
00000000
00000000
00001000
00000000
00000100
00000000
00000010
00000000
00000000
00001000
,
00000000
00000010
00000000
00000100
00000010
00000001
00000010
00001000
,
00000000
00000100
00000000
00010000
00000000
00001000
00000000
01000000
,
00000000
00010000
00000000
00100000
00000000
01000000
10000000
01000000
,
00110000
00000000
00101000
00000000
00010000
00001000
00010000
00000200
,
00000000
00000000
00001300
00000000
00000010
00000100
00000001
00000100
,
00001010
00000000
00010010
00000000
00001000
00010000
00001000
00200000
,
00000000
00000000
00310000
00000000
01000000
10000000
01000000
00100000
,
10100000
00000000
01010000
00000000
00100000
00010000
00001000
00000200
,
00000000
00000000
00000001
00000000
00001000
00000000
00000301
00001000
,
00000100
00000000
00010000
00001000
01000000
00000000
00100000
10000000
,
00010000
00000000
00100000
01000000
10000000
01000000
00100000
00010000
,
10010000
00000000
01010000
00000000
01001000
00000000
00011000
00010000
,
00000100
00000000
00001000
00000001
00000200
00000000
00000310
00000000
,
00001001
00000000
00001010
00000000
00010010
00000000
00011000
00001000
,
00100000
00000000
00010000
01000000
00200000
00000000
10300000
00000000
,
01000000
00010000
00100000
00001000
00010000
00000100
00001000
00000020
,
00000000
00000000
00000130
00000010
00000110
00000000
00001001
00000000
,
00000000
00000010
00001000
00000100
00010000
00001000
01000000
00200000
,
00000000
00010000
10300000
10010000
,
01000000
00000000
01010000
00000000
00001000
00000000
00011000
00010000
,
00000010
00000000
00001000
00000001
00000020
00000000
00000130
00000000
,
00001000
00000000
00001100
00000000
00010000
00000000
00011000
00001000
,
01000000
00000000
00010000
00100000
02000000
00000000
13000000
00000000
,
00100000
00010000
01000000
00001000
00010000
00000010
00001000
00000200
,
00000000
00000000
00000310
00000100
00000110
00000000
00001001
00000000
,
00000000
00000100
00001000
00000010
00010000
00001000
00100000
02000000
,
00000000
00000000
03000000
00000000
;
