#TITLE:GET'CHA HEAD IN THE GAME;
#ARTIST:HIGH SCHOOL MUSICAL;
#FILE:GET'CHA HEAD IN THE GAME.mp3;
#BPM:113.000;
#GAP:22;
#SAMPLESTART:33.569;
#SAMPLELENGTH:15.000;
#CDTITLE:./CDTITLES/Dance Dance Revolution Disney Channel Edition.png;
#DISPLAYBPM:110..113;
#SINGLE:BEGINNER:1:
00000000
00000000
60000000
40000000
80000000
80000000
20000000
20000000
60000000
40000000
40000000
60000000
B0000000
80000000
20000000
B0000000
60600000
40400000
80800000
20200000
60600000
80800000
20200000
40400000
A!A000A000
60000000
60000000
40000000
40000000
A0000000
80000000
40000000
20000000
60004000
40400000
20200000
60600000
20200000
40400000
80800000
60600000
80800000
A0000000
;
#SINGLE:BASIC:3:
00000000
00000000
40006000
20008000
20006000
40008000
40006000
80002000
40600040
80200080
20600020
80400080
A0006040
80004060
80600080
A0002080
60004000
808020B0
40006000
202080B0
80002000
60204020
80002000
80206040
B!B00000B0
40006000
40002000
60002000
40008000
B0000000
6!60000060
4!40000040
2!20000020
8!8000A!2000
10008000
404060A0
60008000
606040A0
80206040
20804060
80402060
40206040
A0000000
;
#SINGLE:ANOTHER:6:
00000000
00000000
46206480
28406280
84202460
68202480
26808240
46808620
28606840
42808620
28404260
62808690
10404640
30606460
28208470
30606840
80604420
48608820
80406680
62402280
40604680
22408860
80208260
44208860
B!B00000B0
(0060400080040020)
(8000600020080040)
(2000800060020080)
(4000600020060040)
B!B00000B0
06408260
08204680
02406820
04600460
80204240
66806620
80206860
44204480
468082A0
46268090
868480A0
6424807B
;
#SINGLE:MANIAC:8:
00000000
00000000
(4020400020420420)
(8060800060860860)
(4080400080480840)
(6020600020620260)
(8060200060460640)
(8040200040640460)
48608240
26824820
64204680
86848290
10404280
90606820
48682870
30202840
(6042004640806000)
84262460
(4068006460204000)
26848640
(8026004840602000)
84826260
82462860
82642849!9
00000090
(00602000700A0030)
(60208000A0030070)
(80406000B00900A0)
(20408000300B0070)
A!A00000A0
0AA82640
0BB64280
09964210
077!707330
(6042006260408000)
68428640
(4068004840602000)
42682460
(8062008480206000)
46862640
(8484646462620000)
8684826B
;
#DOUBLE:BASIC:4:
00000000
00000000
80402060
00000000
00000000
00000060
00608040
00206040
20600080
60200060
00000000
00600000
00000000
60002280
600020A0
B0402280
00600000
00600000
00600020
80406680
20600020
80600020
60800060
00000060
6!60000060
00000000
00006080
A0B04020
80006000
6!60000060
6!60600000
00000000
00000000
00000000
00006620
40806600
00000000
60204480
A0B04460
20006600
60000000
00006600
60000000
:
00000000
00000000
00000000
40206080
60402080
60804000
40000000
00000000
00004000
00004000
80406020
800040A0
B0602280
00400000
00400000
00000000
40002280
40002240
80004400
00000000
00004400
00004400
00004400
20804400
4!40000040
2040B0A0
20400000
00000000
00400020
4!40000040
4!40408020
A!A0A06040
B!B0B02080
B!B0B0A!A0A0
20400000
00000040
20608840
00000000
00000000
00400040
00204460
20400040
40000000
;
#DOUBLE:ANOTHER:6:
00000000
00000000
46208600
00000600
86402480
60000000
60800680
60000600
60000680
84202460
62000000
00000000
00000000
60006240
68408690
10404820
84062060
00000000
00000060
08064280
90304260
60000000
00000000
06808460
B!B00000B0
(0060400080040020)
(8000600020000060)
(0000000000000000)
(0000000000000060)
6!60000060
00000000
06008640
06802460
08000600
00000000
060680B0
20604870
84620060
00000000
00600000
00682630
28600066
:
00000000
00000000
00000040
86402040
00000000
08406840
04004000
02408040
04804000
00000000
00404860
48608470
30606240
40400000
00000000
00000000
00000400
84062840
28064200
40000000
00000000
04202840
10706840
40000000
00000000
(0000000000000000)
(0000000000040000)
(4000800060020080)
(4000200080040000)
4!40000040
08406280
00400000
00000000
00400020
80604210
20400000
00000000
00004040
84606230
24042080
24000000
00048404
;
#DOUBLE:MANIAC:8:
00000000
00000000
(2000400040260600)
(0000000000000060)
(0000600000260260)
(8060000060000000)
(0000000060280280)
(2080604020080000)
60000280
42862860
82060000
00000000
00000000
00606240
68626490
10202480
(6006000600000000)
00000000
(0060006060804000)
28262480
(4062000600000000)
00000000
06086240
28426247!7
00000070
(00604000B0070090)
(0000600000000000)
(0000000060060020)
0264286!60
4!400000B0
0BB62060
06600000
00000600
06!6200600
(0000000000000000)
06026480
(A082006460208000)
20600000
(0000000000000000)
06026480
(6262848464640060)
20600000
:
00000000
00000000
(0000000000000040)
(2000600060240400)
(8040000040000000)
(0000400000240240)
(8020400000000000)
(0000000000000040)
04804000
00000000
00402460
48264670
30202680
40000000
00000000
00000000
(0040004040206000)
82848620
(4004000400000000)
00000000
(0000004040208000)
68426240
20400000
00000000
00000000
(0000000000000000)
(00400080700A0030)
(0060408080040040)
00000000
00000000
00000400
04442840
0BB48040
00000420
(A082006460208000)
80400000
(0000000000000000)
04084620
(7084006260208000)
80400000
(0000000000000000)
0408462B
;
