#TITLE:CHEETAH SISTERS;
#SUBTITLE:;
#ARTIST:THE CHEETAH GIRLS;
#TITLETRANSLIT:;
#SUBTITLETRANSLIT:;
#ARTISTTRANSLIT:;
#CREDIT:;
#BANNER:CHEETAH SISTERS.png;
#BACKGROUND:CHEETAH SISTERS-bg.png;
#LYRICSPATH:;
#CDTITLE:./CDTITLES/Dance Dance Revolution Disney Channel Edition.png;
#MUSIC:CHEETAH SISTERS.mp3;
#OFFSET:-0.033;
#SAMPLESTART:0.020;
#SAMPLELENGTH:15.000;
#SELECTABLE:YES;
#BPMS:0.000=107.000;
#STOPS:;
#BGCHANGES:;

//---------------dance-single - ----------------
#NOTES:
     dance-single:
     :
     Beginner:
     1:
     0.080,0.085,0.052,0.000,0.000:
0000
0000
0000
0000
,
0000
0000
0000
0000
,
0000
0010
0000
0000
,
0000
0100
0000
0000
,
0000
1000
0000
0000
,
0000
0001
0000
0000
,
0000
0100
0000
0000
,
0000
0010
0000
0000
,
0000
1000
0000
0000
,
0000
0001
0000
0000
,
0000
1000
0000
0000
,
0000
0010
0000
0000
,
0000
0100
0000
0000
,
0000
0001
0000
0000
,
0000
0010
0000
0000
,
0000
1000
0000
1000
,
0000
0100
0000
0100
,
0000
0010
0000
0010
,
0000
0001
0000
0001
,
0000
0100
0000
0100
,
0000
0010
0000
0010
,
0000
1000
0000
1000
,
0000
0100
0000
0100
,
0000
0010
0000
0000
,
0000
0001
0000
0000
,
0000
1000
0000
0000
,
0000
0010
0000
0000
,
0000
0001
0000
0000
,
0000
0100
0000
0000
,
0000
1000
0000
0000
,
0000
0010
0000
0000
,
0000
1001
0000
0000
,
0000
0001
0000
0000
,
0000
0110
0000
0000
,
0000
1001
0000
0000
,
0000
0100
0000
0000
,
0000
0010
0000
0000
,
0000
1001
0000
0000
,
0000
1000
0000
0001
,
0000
0100
0000
0000
,
0000
0010
0000
0000
,
0000
0110
0000
0000
;

//---------------dance-single - ----------------
#NOTES:
     dance-single:
     :
     Easy:
     3:
     0.207,0.235,0.228,0.000,0.000:
0000
0000
0000
0000
,
0000
0000
0000
0000
,
0000
0001
0000
0010
,
0000
1000
1000
0100
,
0000
0010
0000
1000
,
0000
0001
0100
0100
,
0000
0010
0000
0001
,
0000
1000
1000
0100
,
0000
0010
0000
1001
,
0000
0100
0000
0001
,
0000
0010
0100
1000
,
0000
0010
0000
1000
,
1000
0100
0010
0001
,
0000
0001
0000
1000
,
0000
0010
0100
0010
,
0100
1001
0000
0001
,
0010
0110
0000
0100
,
1000
1001
0000
0001
,
1000
0110
0000
1001
,
0000
0001
0010
0100
,
0000
1000
0010
0100
,
0000
1001
0000
0110
,
0000
1000
0001
1001
,
0000
0010
0100
0100
,
0010
0000
0001
1000
,
0001
1000
0010
0010
,
0000
0001
0100
0100
,
0000
0010
1000
1000
,
0000
0010
0001
1000
,
0100
0010
0001
0100
,
1000
0001
0000
1000
,
0000
0110
0000
0001
,
1000
0110
0000
1000
,
0001
0110
1000
1001
,
1000
0010
0100
1001
,
0010
0110
0001
0100
,
1000
0110
0001
1000
,
0010
1001
0000
0110
,
0000
1001
0110
1001
,
0000
0110
0001
1000
,
0010
0100
0001
0001
,
1000
1000
0000
0000
;

//---------------dance-single - ----------------
#NOTES:
     dance-single:
     :
     Medium:
     5:
     0.288,0.277,0.248,0.000,0.000:
0000
0000
0000
0000
,
0000
0000
0000
0000
,
0000
1000
0010
0100
,
0000
0001
0001
0010
,
0100
1000
1000
0001
,
0001
1000
0010
0010
,
0100
0100
0001
1000
,
0000
0001
0001
0010
,
0000
0100
0010
1001
,
1000
0100
0010
0000
0100
0000
1000
0000
,
0001
0100
0010
1000
,
0001
0010
0100
0000
1000
0000
0100
0000
,
0010
0001
0010
0100
,
1000
0010
0100
0000
0010
0000
1000
0000
,
0001
0000
0100
0010
0100
0010
0100
0000
,
0001
1100
0010
1000
,
0010
0101
0010
1000
,
0010
1001
0100
0010
,
1000
0000
0100
0010
0001
0000
1001
0000
,
1000
0011
0100
0001
,
0100
1010
0100
0001
,
0100
1001
0010
0100
,
0001
0000
0010
0100
1000
0000
1001
0000
,
0000
0000
0100
0010
0001
0000
1000
0000
,
0010
0000
0100
0010
1000
0000
0001
0000
,
0010
0000
0100
1000
0001
0000
0010
0001
,
1000
0000
1000
0000
0010
0000
0100
0001
,
0010
0000
0100
1000
0001
0000
0011
0000
,
1100
0000
0110
0000
0001
0000
1000
0001
,
0010
0100
1000
0010
,
0100
0000
1000
1000
0010
0000
1001
0000
,
1000
0011
0100
0001
,
0100
1010
0100
0001
,
0100
1001
0010
0100
,
0001
0000
0010
0100
1000
0000
1001
0000
,
0001
1100
0010
1000
,
0010
0101
0010
1000
,
0010
1001
0100
0010
,
1000
0000
0100
0010
0001
0000
1001
0000
,
0000
0110
1000
0001
,
0100
0000
0010
1000
0001
1000
0001
0000
,
1001
0110
0000
0000
;

//---------------dance-single - ----------------
#NOTES:
     dance-single:
     :
     Hard:
     6:
     0.359,0.330,0.217,0.041,0.000: // measure 1
0000
0000
0000
0000
,  // measure 2
0000
0000
0000
0000
,  // measure 3
0000
0000
0010
0100
0001
0000
0010
0100
,  // measure 4
1000
0000
0100
0000
0001
0000
0010
1000
,  // measure 5
0100
0000
0100
0000
0010
0000
0001
1000
,  // measure 6
1001
1000
0010
0100
,  // measure 7
0001
0000
0010
0000
0100
0000
1000
0100
,  // measure 8
1000
0010
0100
0001
,  // measure 9
0010
0000
0100
0010
0100
0000
2002
0000
,  // measure 10
0000
0000
3003
0000
0100
0000
0010
0001
,  // measure 11
0000
1000
0000
0100
0010
0000
0001
1000
,  // measure 12
0000
1010
0101
0010
,  // measure 13
1000
0000
0010
1000
0100
0000
0010
0001
,  // measure 14
0100
0010
1000
0100
0010
0000
0100
0000
,  // measure 15
0010
0100
0000
1000
0001
0010
0100
0000
,  // measure 16
1001
0000
0100
0001
0010
0000
0100
1000
,  // measure 17
0000
1100
0000
0010
0001
0000
1000
0100
,  // measure 18
1000
0000
0010
0100
0001
1000
0100
1000
,  // measure 19
0010
0100
0001
0010
0001
1000
0100
0000
,  // measure 20
1001
0000
0010
1000
0100
0000
0010
0001
,  // measure 21
0000
0011
0000
0100
1000
0000
0001
0010
,  // measure 22
0001
0000
0100
0010
1000
0001
0010
0001
,  // measure 23
0100
0010
1000
0100
1000
0001
0010
0000
,  // measure 24
1001
0000
1000
0000
0010
0100
0000
0100
,  // measure 25
0000
0110
0000
0001
0100
1000
0100
0001
,  // measure 26
0010
0000
0100
0000
1000
0100
1000
0000
,  // measure 27
0010
0000
0001
0000
0100
0001
0010
0000
,  // measure 28
0100
0000
1000
0000
1000
0001
1000
0000
,  // measure 29
0010
0100
0000
0100
0010
1000
0100
0000
,  // measure 30
1100
0000
0001
1000
0001
1000
0001
1000
,  // measure 31
0001
0110
1100
0011
,  // measure 32
1001
0000
0010
1000
0100
0000
0010
0001
,  // measure 33
0000
0011
0000
0100
1000
0000
0001
0010
,  // measure 34
0001
0000
0100
0010
1000
0001
0010
0001
,  // measure 35
0100
0010
1000
0100
1000
0001
0010
0000
,  // measure 36
1001
0000
0100
0001
0010
0000
0100
1000
,  // measure 37
0000
1100
0000
0010
0001
0000
1000
0100
,  // measure 38
1000
0000
0010
0100
0001
1000
0100
1000
,  // measure 39
0010
0100
0001
0010
0001
1000
0100
0000
,  // measure 40
1001
0000
0001
0000
0100
0010
0000
0010
,  // measure 41
0000
1001
0000
1000
0001
1000
0001
1000
,  // measure 42
0010
0220
0000
0000
,  // measure 43
0000
0000
0330
0000
;

//---------------dance-double - ----------------
#NOTES:
     dance-double:
     :
     Easy:
     2:
     0.160,0.171,0.103,0.000,0.000:
00000000
00000000
00000000
00000000
,
00000000
00000000
00000000
00000000
,
00000000
00010000
00000000
00001000
,
00000000
00000010
00000010
00000001
,
00000000
00000100
00000000
00001000
,
00000000
00010000
00000000
00100000
,
01000000
10000000
00000000
01000000
,
00000000
00100000
00100000
00010000
,
00001000
00001000
00000000
00000110
,
00000000
00000010
00000000
00000001
,
00000000
00000010
00000000
00000100
,
00000000
00001000
00000000
00010000
,
00000000
00001000
00000000
00010000
,
00000000
00100000
00000000
10000000
,
00000000
00010000
00010000
01000000
,
00000000
10010000
00000000
00100000
,
00000000
00010000
00000000
00001000
,
00000000
00011000
00000000
00000100
,
00000100
00000010
00000001
00000001
,
00000000
00000110
00000000
00000100
,
00000000
00001000
00000000
00010000
,
00000000
00011000
00000000
00100000
,
00100000
01000000
10000000
10000000
,
00000000
01000000
01000000
00010000
,
00000000
00100000
00000000
00001000
,
00000000
00001000
00001000
00010000
,
00000000
00000100
00000000
00000010
,
00000000
00000100
00000001
00000010
,
00000010
00001000
00000000
00010000
,
00000000
01100000
00000000
10010000
,
00000000
00100000
00010000
00001000
,
00000100
00000110
00000000
00000001
,
00000010
00000010
00000000
00000100
,
00001000
00001000
00000000
00010000
,
00000000
00001000
00000000
00010000
,
00000000
00100000
01000000
01000000
,
00000000
10000000
00000000
00100000
,
00000000
01000000
00000000
00001000
,
00000000
00010000
00010000
00000100
,
00000000
00000010
00000000
00000001
,
00000000
00001001
00000000
00000100
,
00000000
00011000
00000000
00000000
;

//---------------dance-double - ----------------
#NOTES:
     dance-double:
     :
     Medium:
     6:
     0.307,0.277,0.238,0.000,0.000:
00000000
00000000
00000000
00000000
,
00000000
00000000
00000000
00000000
,
00000000
00000000
10000000
00000000
00100000
00000000
01000000
00010000
,
00100000
00001000
00010000
00000010
,
00001000
00000000
00000001
00000000
00001000
00000000
00000100
00000010
,
00000001
00001000
00000100
00010000
,
00001000
00000000
01000000
00000000
00010000
00000000
00100000
01000000
,
10000000
01000000
00100000
00010000
,
01000000
00000000
00001000
00000000
00010000
00010000
00000100
00000000
,
00001010
00000000
00000100
00000000
00000010
00000000
00000001
00000010
,
00000100
00010000
00001000
00100000
,
00010000
00100000
01000000
10000000
00010000
00000000
01000000
00000000
,
00100000
00010000
00001000
00010000
,
00000010
00001000
00000100
00000000
00001000
00000000
00000001
00000000
,
00000010
00000000
00001000
00000100
00001000
00000100
00010000
00000000
,
00001000
00000000
00110000
00000000
01000000
00000000
10000000
00100000
,
01000000
00000000
01010000
00000000
00100000
00000000
00001000
00010000
,
00001000
00001100
00000010
00000101
,
00000010
00001100
00010000
00011000
,
00100000
00000000
00010000
01000000
10000000
00000000
01000000
00000000
,
00001000
00000000
00010000
00001000
00000010
00000000
00000001
00000000
,
00000100
00000000
00000001
00000001
00001000
00000000
00000100
00000001
,
00000010
00000001
00000100
00000000
00000110
00000000
00000000
00000000
,
00000100
00010000
00001000
00000000
01000000
00000000
00100000
00000000
,
10000000
00000000
01000000
00100000
00010000
00000000
01000000
00000000
,
00001000
00000000
00010000
00001000
00000100
00000000
00000010
00001000
,
00000001
00000000
00000100
00000000
00000010
00000000
00010000
00001000
,
00100000
00000000
01000000
10000000
00010000
00000000
00110000
00000000
,
00011000
00000000
00001100
00000000
00000010
00000000
00000001
00001000
,
00000100
00010000
00001000
00100000
,
00010000
00000000
01000000
01000000
00100000
00000000
11000000
00000000
,
00100000
00110000
00001000
00010000
,
00000100
00000110
00000010
00001000
,
00000001
00001001
00000100
00001000
,
00010000
00000000
00001000
00010000
01000000
00000000
10010000
00000000
,
01000000
00110000
00010000
00001000
,
00010000
00011000
00000100
00000010
,
00000001
00001010
00000100
00000001
,
00001000
00000000
00000100
00010000
00001000
00000000
00011000
00000000
,
00100000
01100000
10000000
00010000
,
10000000
00000000
01000000
00100000
00001000
00100000
00001000
00000000
,
00011000
00001100
00000000
00000000
;

//---------------dance-double - ----------------
#NOTES:
     dance-double:
     :
     Hard:
     7:
     0.369,0.326,0.176,0.103,0.000:
00000000
00000000
00000000
00000000
,
00000000
00000000
00000000
00000000
,
00000000
00000000
00000100
00000001
00000010
00000000
00000100
00010000
,
00001000
00000000
00010000
00001000
01000000
00000000
01000000
00010000
,
10000000
00000000
00100000
10000000
00100000
00000000
01100000
00000000
,
11000000
00000000
00110000
00000000
00100000
00000000
00001000
00010000
,
00000100
00000000
00001010
00000000
00000010
00000000
00000100
00000001
,
00000010
00000000
00001100
00000000
00010000
00000000
00001000
00100000
,
00010000
00000000
10000000
01000000
00100000
00010000
01000000
00000000
,
10100000
00000000
01000000
00100000
01000000
00000000
00010000
00100000
,
00000000
00001000
00000000
00010000
00001000
00000000
00000010
00000100
,
00001000
00000000
00000010
00000100
00000001
00000000
00000100
00000010
,
00001000
00000100
00010000
00000000
00001000
00000000
01000000
00010000
,
01000000
00000000
00100000
10000000
01000000
00000000
00100000
00000000
,
00010000
00000000
10000000
00010000
10000000
00010000
10000000
00000000
,
00110000
00000000
01000000
00010000
00100000
00000000
00011000
00000000
,
00000100
00000000
00001000
00000100
00000010
00000000
00000001
00000000
,
00000110
00000000
00000001
00000010
00000100
00001000
00000001
00000010
,
00000100
00000000
00010000
00001000
00010000
00001000
00100000
00000000
,
01100000
00000000
10000000
01000000
10000000
00000000
00010000
00100000
,
00000000
00100000
00001000
00010000
00000100
00000000
00001000
00000010
,
00000100
00000000
00000001
00000100
00001000
00000100
00000001
00000000
,
00000010
00000000
00000100
00010000
00001000
00100000
00010000
00000000
,
01100000
00000000
10000000
00100000
01000000
00000000
00100000
01000000
,
00010000
00000000
00100000
00001000
00010000
00000000
00002000
00000000
,
00023000
00000000
00030010
00010000
00001000
00000000
00100000
00001000
,
00010000
00000000
00000100
00001000
00000010
00000000
00000100
00000001
,
00000010
00000200
00000320
00002030
,
00023000
02030000
03200000
00320000
,
10030000
11000000
00100000
00110000
,
00001000
00000000
00010000
00000100
00001000
00000010
00000100
00000001
,
00000010
00000000
00000100
00001000
00000100
00000000
00011000
00000000
,
00100000
00000000
00010000
00100000
01000000
00000000
10000000
00000000
,
01100000
00000000
10000000
01000000
00100000
00010000
10000000
01000000
,
00100000
00000000
00001000
00010000
00001000
00010000
00000100
00000000
,
00000110
00000000
00000001
00000010
00000001
00000000
00001000
00000100
,
00000000
00000100
00010000
00001000
00100000
00000000
00010000
01000000
,
00100000
00000000
10000000
00100000
00010000
00100000
10000000
00000000
,
01000000
00000000
00100000
00001000
00010000
00001000
00010000
00000000
,
00011000
00000000
00000100
00001000
00000010
00000000
00000100
00000001
,
00000010
00000000
00000100
00010000
00001000
00100000
00010000
10000000
,
00100000
01000000
00200000
00000000
00000000
00000000
00000000
00000000
,
00300000
00000000
00000000
00000000
;
