#VERSION:0.82;
#TITLE:I Don't Like It, I Love It;
#SUBTITLE:;
#ARTIST:Flo Rida feat. Robin Thicke & Verdine White;
#TITLETRANSLIT:;
#SUBTITLETRANSLIT:;
#ARTISTTRANSLIT:;
#GENRE:Fucky Whistle;
#ORIGIN:;
#CREDIT:;
#BANNER:I Don't Like It, I Love It.png;
#BACKGROUND:I Don't Like It, I Love It-bg.png;
#PREVIEWVID:;
#JACKET:jacket.png;
#CDIMAGE:;
#DISCIMAGE:;
#LYRICSPATH:;
#CDTITLE:;
#MUSIC:I Don't Like It, I Love It.ogg;
#OFFSET:-0.008000;
#SAMPLESTART:89.486015;
#SAMPLELENGTH:15.533999;
#SELECTABLE:YES;
#BPMS:0.000=118.000;
#STOPS:;
#DELAYS:;
#WARPS:;
#TIMESIGNATURES:0.000=4=4;
#TICKCOUNTS:0.000=4;
#COMBOS:0.000=1;
#SPEEDS:0.000=1.000=0.000=0;
#SCROLLS:0.000=1.000;
#FAKES:;
#LABELS:0.000=Song Start;
#BGCHANGES:4.000=I Don't Like It I Love It.avi=1.000=0=0=1=====,
99999=-nosongbg-=1.000=0=0=0 // don't automatically add -songbackground-
;
#KEYSOUNDS:;
#ATTACKS:
;

//---------------dance-single - ----------------
#NOTEDATA:;
#CHARTNAME:;
#STEPSTYPE:dance-single;
#DESCRIPTION:;
#CHARTSTYLE:;
#DIFFICULTY:Hard;
#METER:7;
#RADARVALUES:0.413631,0.407433,0.155364,0.091806,0.137709,375.000000,22.000000,13.000000,0.000000,0.000000,0.000000,0.000000,0.000000,0.413631,0.407433,0.155364,0.091806,0.137709,375.000000,22.000000,13.000000,0.000000,0.000000,0.000000,0.000000,0.000000;
#CREDIT:Ben Speirs;
#NOTES:
0000
0000
0000
0000
,
0000
0000
0000
0000
,
0000
0000
0000
0000
,
0000
0000
0000
0000
0000
0000
0000
0000
0000
0000
0000
0000
0001
0200
0000
0000
,
0310
1000
0000
0001
,
1000
0000
0100
0000
0010
0000
0001
1000
,
0010
0100
0000
0100
,
0001
0000
0000
1000
0000
0000
0001
0000
0000
0000
0000
0000
1000
0020
0000
0000
,
0130
0001
0000
1000
,
0001
0000
0010
0000
0100
0000
1000
0001
,
0100
0010
0000
0010
,
1000
0100
0010
0001
1000
0000
1001
0000
,
0100
0010
0100
0001
1000
0000
1001
0000
,
0100
0000
0010
0000
0100
0000
0001
0000
1000
0000
0000
0000
0100
0020
0000
0000
,
0031
0000
0000
1000
0001
0000
0000
0000
0100
0000
0000
0000
0010
0000
0010
0000
,
1000
0000
0000
0001
1000
0000
0000
0000
0100
0000
0010
0000
1001
0000
0000
0000
,
0010
0100
0010
1000
0001
0000
1001
0000
,
0010
0000
0100
0000
0010
0000
1000
0000
0001
0000
0000
0000
0010
0200
0000
0000
,
1300
0000
0000
0001
1000
0000
0000
0000
0010
0000
0000
0000
0100
0000
0100
0000
,
0001
0000
0000
1000
0001
0000
0000
0000
0010
0000
0100
0000
1000
0000
0001
0000
,
0101
0000
1010
0000
0001
1000
0001
0000
,
0000
0100
0100
0010
1000
0001
0100
0000
,
0001
0010
0010
0100
0010
0001
1000
0000
,
1100
0000
0101
0000
1000
0001
1000
0000
,
0010
0100
0001
0010
0100
1000
0001
0000
,
1000
0100
1000
0001
0100
0010
1000
0000
,
0001
0100
0001
0000
1000
0100
1000
0000
,
0010
0000
0100
0000
0001
0000
1000
0000
0100
0000
0010
0000
0001
2000
0000
0000
,
3010
0000
0000
0010
0100
0000
0000
0000
0001
0000
0000
0001
1000
0000
0000
0000
,
0100
0000
0010
0000
0100
0000
0010
0000
0001
0000
0000
0001
1000
0000
0000
0000
,
0010
0000
0100
0000
0010
0000
0100
0000
0001
0000
0000
0001
1000
0000
0000
0000
,
0100
1000
0010
0000
0100
0001
0010
0000
,
0001
0010
0100
1000
0000
0001
1001
0000
,
1000
0010
0100
0001
0000
1000
1001
0000
,
0100
0010
1000
0100
1000
0001
0100
0000
,
0010
0000
0010
0000
1000
0000
0100
0000
0100
0000
0000
0000
0100
0020
0000
0000
,
0031
1000
0000
0001
,
0100
0001
0100
0000
0001
1000
0001
0000
,
1000
0100
0000
1000
,
0010
0000
0000
0100
0000
0000
0010
0000
0000
0000
0000
0000
1000
0200
0000
0000
,
0310
0001
0000
1000
,
0001
0100
0001
0000
1000
0001
1000
0000
,
0100
0010
0000
0010
,
0001
0100
0010
1000
0100
0000
1001
0000
,
1000
0100
0010
0001
1000
0000
0101
0000
,
1000
0000
0100
0000
0010
0000
0001
0000
1000
0000
0000
0000
0001
0200
0000
0000
,
0310
0000
0000
0010
1000
0000
0000
0000
0001
0000
0000
0000
1000
0000
0100
0000
,
0010
0000
0000
0010
0001
0000
0000
0000
1000
0000
0001
0000
1001
0000
0000
0000
,
0001
0010
0100
1000
0001
0000
1010
0000
,
0001
0000
0010
0000
0100
0000
1000
0000
0001
0000
0000
0000
1000
0020
0000
0000
,
0130
0000
0000
0100
0001
0000
0000
0000
1000
0000
0000
0000
0001
0000
0010
0000
,
0100
0000
0000
0100
1000
0000
0000
0000
0001
0000
1000
0000
1010
0000
0000
0000
,
0001
0000
0100
0000
0001
0000
0100
0000
0010
0000
1000
0100
0000
0000
0000
0000
,
1000
0000
0100
0000
1000
0000
0100
0000
0010
0000
0001
0100
0000
0000
0000
0000
,
0010
0000
0100
0000
0010
0000
0100
0000
0001
0000
1000
0100
0000
0000
0000
0000
,
1000
0000
0001
0000
1000
0010
0000
0200
0000
0000
0301
0000
0000
0000
0000
0000
,
1000
0000
0100
0000
1000
0000
0010
0000
1000
0000
0000
1100
0000
0000
1000
0000
,
0001
0000
0100
0000
0001
0000
0010
0000
0001
0000
0000
0101
0000
0000
0000
0000
,
0100
0000
0010
0000
0100
0000
0001
0000
1000
0000
0000
1001
0000
0000
0001
0000
,
0100
0000
0000
0100
0000
0000
0010
0000
1000
0000
0000
1000
0000
0000
0000
0000
,
0101
0001
1000
0100
0010
0000
0001
0000
,
0101
0000
0001
0000
1000
0000
0100
0000
0010
0000
0000
0000
0001
2000
0000
0000
,
3010
0000
0000
0010
0100
0000
0000
0000
0001
0000
1000
0000
0100
0000
0000
0000
,
0010
0000
0000
0010
0002
0000
0000
0000
1003
0000
0010
0000
0100
0000
0000
0000
,
1010
1000
0001
0010
0100
0000
1000
0000
,
1010
0000
1000
0000
0001
0000
0010
0000
0100
0000
0000
0000
1000
0002
0000
0000
,
0103
0000
0000
0100
0010
0000
0000
0000
0000
0000
0000
0000
1000
0000
0000
0000
,
0100
0000
0000
0100
0010
0000
0000
0000
0001
0000
0010
0000
0100
0000
1000
0000
;

//---------------dance-single - ----------------
#NOTEDATA:;
#CHARTNAME:;
#STEPSTYPE:dance-single;
#DESCRIPTION:;
#CHARTSTYLE:;
#DIFFICULTY:Challenge;
#METER:9;
#RADARVALUES:0.557898,0.647100,0.141240,0.084744,0.564960,521.000000,20.000000,12.000000,0.000000,0.000000,0.000000,0.000000,0.000000,0.557898,0.647100,0.141240,0.084744,0.564960,521.000000,20.000000,12.000000,0.000000,0.000000,0.000000,0.000000,0.000000;
#CREDIT:Ben Speirs;
#NOTES:
// measure 0
0000
0000
0000
0000
,  // measure 1
0000
0000
0000
0000
,  // measure 2
0000
0000
0000
0000
,  // measure 3
0000
0000
0000
0000
0000
0000
0000
0000
0000
0000
0000
0000
0001
2000
0000
0000
,  // measure 4
3010
0100
0000
0000
0000
0000
0010
0100
0000
0000
0000
0000
0001
0000
0000
0000
,  // measure 5
1000
0000
1000
0100
0000
0100
0010
0000
0000
0000
0001
0000
1000
0000
0000
0000
,  // measure 6
0010
0100
0000
0000
0000
0000
0010
0100
0000
0000
0000
0000
0001
0000
0000
0000
,  // measure 7
0010
0000
0010
0001
0000
0001
1000
0000
0000
0000
0010
0000
1000
0002
0000
0000
,  // measure 8
0103
0010
0000
0000
0000
0000
0100
0010
0000
0000
0000
0000
1000
0000
0000
0000
,  // measure 9
0001
0000
0001
0010
0000
0010
0100
0000
0000
0000
1000
0000
0001
0000
0000
0000
,  // measure 10
0100
0010
0000
0000
0000
0000
0100
0010
0000
0000
0000
0000
1000
0000
0000
0000
,  // measure 11
0100
0000
0000
0000
0000
0000
0100
0000
0000
0000
0000
0000
1000
0000
0000
0000
0000
0000
0001
0000
0000
0100
0000
0000
0001
0000
0000
0000
0010
0000
0000
0000
0100
0000
0000
0000
1100
0000
0000
0000
0000
0000
0000
0000
0000
0000
0000
0000
,  // measure 12
0101
0000
0100
0000
0010
0000
1000
0100
1000
0000
0001
1000
0000
1000
0000
0010
,  // measure 13
0100
0000
0001
0000
1000
0000
0100
0010
0100
0000
0000
0000
1000
0100
0000
0000
,  // measure 14
0101
0000
0000
1000
0100
0000
0000
0000
1000
0000
0001
0000
0100
0000
0000
0000
,  // measure 15
0101
0000
0000
1000
0100
0000
0000
0000
1000
0000
0001
0010
0100
1000
0001
0000
,  // measure 16
1000
0000
0010
0000
0100
0000
0001
0010
0001
0000
1000
0001
0000
0001
0000
0100
,  // measure 17
0010
0000
1000
0000
0001
0000
0010
0100
0010
0000
0000
0000
0001
0010
0000
0000
,  // measure 18
1010
0000
0000
0001
0010
0000
0000
0000
0001
0000
1000
0000
0010
0000
0000
0000
,  // measure 19
1010
0000
0000
0001
0010
0000
0000
0000
0001
0000
0011
0000
0110
0000
1100
0000
,  // measure 20
0001
0000
1000
0000
0001
0000
0000
0000
0100
0000
0100
0010
0000
1000
0100
0000
,  // measure 21
1000
0000
0001
0000
1000
0000
1000
0000
0100
0000
0100
0010
0000
0001
0100
0000
,  // measure 22
0010
0000
1000
0000
0100
0000
1000
0000
0001
0000
0100
0010
0000
0010
1000
0000
,  // measure 23
0001
0000
0010
0100
0010
0100
0010
0000
0001
0000
1000
0001
0000
0001
0100
0000
,  // measure 24
0010
0000
0010
0000
0010
0000
0000
0000
0100
0010
0000
1000
0000
0100
0010
0000
,  // measure 25
0001
0000
0001
0000
0001
0000
0000
0000
1000
0100
0000
1000
0000
0001
0100
0000
,  // measure 26
0010
0000
1000
0000
0001
0000
1000
0100
0000
0010
0000
0001
0000
1000
0001
0000
,  // measure 27
0100
0000
0010
0000
1000
0000
0100
0000
0010
0000
0001
0000
1000
0020
0000
0000
,  // measure 28
0130
0000
0000
0100
0001
0000
1000
0000
0100
0000
0000
0100
0010
0000
0001
1000
,  // measure 29
0001
1000
0001
0000
0100
0000
0010
0000
0100
0000
0000
0100
0001
0000
1000
0001
,  // measure 30
1000
0001
1000
0000
0100
0000
1000
0000
0010
0000
0000
0010
0100
0000
0001
0000
,  // measure 31
1000
0000
0100
1000
0000
0000
0001
0000
0001
0000
0100
0001
0000
0000
1000
0100
,  // measure 32
1000
0001
1000
0100
1000
0001
1000
0000
0000
0000
1100
0000
1001
0000
0001
0100
,  // measure 33
0001
1000
0001
0100
0001
1000
0001
0000
0000
0000
0101
0000
1001
0000
1000
0100
,  // measure 34
0010
0000
0010
0001
1000
0000
1000
0000
0000
0000
0001
0000
0001
0010
0100
0000
,  // measure 35
1100
0000
1000
0000
0001
0000
0101
0000
0100
0000
0001
0000
1000
0002
0000
0000
,  // measure 36
0103
0010
0000
0000
0000
0000
0100
0010
0000
0000
0000
0000
1000
0000
0000
0000
,  // measure 37
0001
0000
0001
0010
0000
0010
0100
0000
0000
0000
1000
0000
0001
0000
0000
0000
,  // measure 38
0100
0010
0000
0000
0000
0000
0100
0010
0000
0000
0000
0000
1000
0000
0000
0000
,  // measure 39
0100
0000
0100
1000
0000
1000
0001
0000
0000
0000
0100
0000
0001
2000
0000
0000
,  // measure 40
3010
0100
0000
0000
0000
0000
0010
0100
0000
0000
0000
0000
0001
0000
0000
0000
,  // measure 41
1000
0000
1000
0100
0000
0100
0010
0000
0000
0000
0001
0000
1000
0000
0000
0000
,  // measure 42
0010
0100
0000
0000
0000
0000
0010
0100
0000
0000
0000
0000
0001
0000
0000
0000
,  // measure 43
0010
0000
0000
0000
0000
0000
0010
0000
0000
0000
0000
0000
0001
0000
0000
0000
0000
0000
1000
0000
0000
0010
0000
0000
1000
0000
0000
0000
0100
0000
0000
0000
0010
0000
0000
0000
0011
0000
0000
0000
0000
0000
0000
0000
0000
0000
0000
0000
,  // measure 44
1100
0000
0100
0000
0010
0000
0001
1000
0001
0000
0100
0010
0000
0010
0000
0010
,  // measure 45
1000
0000
0100
0000
0010
0000
0001
1000
0001
0000
0000
0000
0100
0020
0000
0000
,  // measure 46
1030
0000
0000
1000
0100
0000
0000
0000
1000
0000
0001
0000
0100
0000
0000
0000
,  // measure 47
0010
0000
0000
0010
0100
0000
0000
0000
0001
0000
1000
0010
0100
0001
1000
0000
,  // measure 48
0001
0000
0010
0000
0100
0000
1000
0001
1000
0000
0010
0100
0000
0100
0000
0100
,  // measure 49
0001
0000
0010
0000
0100
0000
1000
0001
1000
0000
0000
0000
0010
0200
0000
0000
,  // measure 50
0301
0000
0000
0001
0010
0000
0000
0000
0001
0000
1000
0000
0010
0000
0000
0000
,  // measure 51
0100
0000
0000
0100
0010
0000
0000
0000
1000
0000
0001
0100
0010
1000
0001
0000
,  // measure 52
1000
0000
0100
0000
1000
0000
0010
0000
1000
0000
0001
1000
0001
0000
0000
0000
,  // measure 53
0001
0100
0001
0000
1000
0000
0001
0000
0010
0000
0001
1000
0001
0000
0000
0000
,  // measure 54
0100
0000
0010
1000
0010
0000
0100
0001
0100
0000
0001
1000
0000
0000
0100
0000
,  // measure 55
0100
0000
0010
0000
0001
1000
0000
0020
0000
0000
0130
0000
0001
0000
0000
0000
,  // measure 56
1000
0000
0010
1000
0001
0000
0010
0001
2000
0000
0000
0000
3001
0000
0000
0000
,  // measure 57
0001
0010
0001
0000
1000
0000
0001
1000
0020
0000
0000
0000
1030
0000
0000
0000
,  // measure 58
0001
0000
0100
0000
0001
0000
1000
0100
1000
0000
0001
0100
0001
0000
1000
0000
,  // measure 59
0010
0100
0010
1000
0100
0010
0001
1000
0010
0101
0000
0000
,  // measure 60
1001
0000
1000
0000
0010
0000
0100
0001
1000
0000
0010
0100
0000
0100
0000
0001
,  // measure 61
1000
0000
0100
0000
0010
0000
0001
1000
0010
0000
0100
0000
0001
2000
0000
0000
,  // measure 62
3100
0000
0000
0010
0100
0000
0010
0000
0001
0000
1000
0000
0001
0000
0000
0000
,  // measure 63
0100
0000
0000
0010
0100
0000
0001
0000
0010
0000
0001
0100
0010
1000
0001
0000
,  // measure 64
1001
0000
0001
0000
0100
0000
0010
1000
0001
0000
0100
0010
0000
0010
0000
1000
,  // measure 65
0001
0000
0010
0000
0100
0000
1000
0001
0100
0000
0010
0000
1000
0002
0000
0000
,  // measure 66
0013
0100
0000
0000
0000
0000
0010
0100
0000
0000
0010
0000
0100
0000
1000
0000
,  // measure 67
0010
0100
0000
0000
0000
0000
0010
0100
0000
0000
0001
0010
0100
1000
0001
0000
;

//---------------dance-single - ----------------
#NOTEDATA:;
#CHARTNAME:;
#STEPSTYPE:dance-single;
#DESCRIPTION:;
#CHARTSTYLE:;
#DIFFICULTY:Medium;
#METER:4;
#RADARVALUES:0.256250,0.334915,0.063558,0.169488,0.000000,221.000000,9.000000,24.000000,0.000000,0.000000,0.000000,0.000000,0.000000,0.256250,0.334915,0.063558,0.169488,0.000000,221.000000,9.000000,24.000000,0.000000,0.000000,0.000000,0.000000,0.000000;
#CREDIT:Ben Speirs;
#NOTES:
0000
0000
0000
0000
,
0000
0000
0000
0000
,
0000
0000
0000
0000
,
0000
0000
0000
0200
,
0310
1000
0000
1000
,
0100
0010
0001
0000
,
1000
0000
0001
0000
,
0100
0010
1000
0200
,
0310
0001
0000
0001
,
0010
0100
1000
0000
,
0001
0000
1000
0000
,
2002
0000
0000
3003
,
0010
0100
0010
0000
1000
0000
1000
0000
,
0010
0100
0010
0000
1000
0000
0000
0000
,
0200
0300
0010
0001
,
2000
3000
0010
0000
,
0100
0010
0100
0000
0001
0000
0001
0000
,
0100
0010
0100
0000
0001
0000
0000
0000
,
0002
0003
0010
0000
,
0200
0300
1000
0000
,
0010
0000
0010
0000
1000
1000
1000
0000
,
0100
0000
0100
0000
0010
0010
0010
0000
,
0001
0001
1000
1000
,
0010
0000
0010
0000
0100
0001
1000
0000
,
0100
0000
0100
0100
,
1000
0000
1000
1000
,
0001
0000
0001
0001
,
0010
0000
0001
1000
,
0010
0100
0010
0000
0100
0010
0100
0000
,
0010
0010
0100
0000
,
0001
0100
0001
0000
0100
0000
0100
0000
,
0001
0001
1000
0000
,
0100
0000
0100
0000
0000
1000
0001
0000
,
0100
0000
0100
0000
0000
0001
1000
0000
,
0010
0010
1000
0100
,
0010
0001
1000
0020
,
0130
0001
0000
0001
,
0010
0100
1000
0000
,
0001
0000
1000
0000
,
0010
0100
0001
0020
,
0130
1000
0000
1000
,
0100
0010
0001
0000
,
1000
0000
0001
0000
,
2002
0000
0000
3003
,
0100
0010
0100
0000
0001
0000
0001
0000
,
0100
0010
0100
0000
0001
0000
0000
0000
,
0020
0030
0100
1000
,
0002
0003
0100
0000
,
0010
0100
0010
0000
1000
0000
1000
0000
,
0010
0100
0010
0000
1000
0000
0000
0000
,
0200
0300
0010
0001
,
2000
3000
0002
0003
,
0100
0000
0100
0000
0010
0100
0010
0000
,
1000
0000
1000
0000
0001
1000
0001
0000
,
0010
0000
0010
0000
0100
0010
0100
0000
,
0010
0001
1000
0000
,
0001
0001
0101
0101
,
1000
1000
1100
1100
,
0002
0003
2000
3000
,
0220
0000
0000
0330
,
1001
0100
0010
1000
,
0001
0001
1000
0000
,
0100
0010
0100
0000
1000
0000
0000
0000
,
0010
0100
0010
0000
1000
0000
0000
0000
,
1001
0100
0001
0010
,
0010
0100
1000
0001
,
0200
0310
0000
0010
,
2000
3100
0020
0031
;

//---------------dance-single - ----------------
#NOTEDATA:;
#CHARTNAME:;
#STEPSTYPE:dance-single;
#DESCRIPTION:;
#CHARTSTYLE:;
#DIFFICULTY:Easy;
#METER:3;
#RADARVALUES:0.155364,0.167458,0.000000,0.000000,0.000000,154.000000,0.000000,0.000000,0.000000,0.000000,0.000000,0.000000,0.000000,0.155364,0.167458,0.000000,0.000000,0.000000,154.000000,0.000000,0.000000,0.000000,0.000000,0.000000,0.000000,0.000000;
#CREDIT:Ben Speirs;
#NOTES:
0000
0000
0000
0000
,
0000
0000
0000
0000
,
0000
0000
0000
0000
,
0000
0000
0000
0000
,
0000
0100
0000
0100
,
0000
0001
0000
0001
,
0000
1000
0000
1000
,
0000
0100
0000
0100
,
0000
0010
0000
0010
,
0000
0001
0000
0001
,
0000
1000
0000
1000
,
0010
0000
0000
0000
,
1000
0100
0010
0000
,
1000
0100
0010
0000
,
0001
0000
1000
0000
,
0001
0000
1000
0000
,
0001
0100
0010
0000
,
0001
0100
0010
0000
,
1000
0000
0001
0000
,
1000
0000
0001
0000
,
0010
0010
0010
0000
,
0100
0100
0100
0000
,
1000
0000
1000
0000
,
0001
0000
0001
0000
,
0100
0000
0010
0010
,
1000
0000
0100
0100
,
0010
0000
0001
0000
,
1000
0000
0001
0000
,
0100
0000
0100
0000
,
0010
1000
0001
0000
,
0010
0001
1000
0000
,
0100
0000
0100
0000
,
1000
1000
0000
0001
,
0100
0100
0000
0010
,
0100
0001
0000
1000
,
0100
0000
0100
0000
,
1000
0001
0000
0001
,
0000
1000
0000
1000
,
0000
0010
0000
0010
,
0000
0100
0000
0100
,
0000
0001
0000
0001
,
0000
1000
0000
1000
,
0000
0100
0000
0100
,
0010
0000
0000
0000
,
0001
1000
0010
0000
,
0001
1000
0010
0000
,
1000
0000
0001
0000
,
1000
0000
0001
0000
,
1000
0010
0100
0000
,
1000
0010
0100
0000
,
0001
0000
1000
0000
,
0001
0000
1000
0000
,
0100
0000
0100
0100
,
0010
0000
0010
0010
,
0001
0000
0001
0001
,
1000
0000
0001
0000
,
0100
0000
0100
0100
,
0010
0000
0010
0010
,
1000
0000
1000
1000
,
0001
0000
0000
0000
,
0001
1000
0100
0000
,
0001
1000
0100
0000
,
0010
0000
0010
0000
,
0001
0000
0001
0000
,
1000
0001
0100
0000
,
1000
0001
0100
0000
,
0010
0000
0010
0000
,
1000
0000
0100
0100
;

//---------------dance-single - ----------------
#NOTEDATA:;
#CHARTNAME:;
#STEPSTYPE:dance-single;
#DESCRIPTION:;
#CHARTSTYLE:;
#DIFFICULTY:Beginner;
#METER:1;
#RADARVALUES:0.099877,0.143535,0.007062,0.000000,0.000000,98.000000,1.000000,0.000000,0.000000,0.000000,0.000000,0.000000,0.000000,0.099877,0.143535,0.007062,0.000000,0.000000,98.000000,1.000000,0.000000,0.000000,0.000000,0.000000,0.000000,0.000000;
#CREDIT:Ben Speirs;
#NOTES:
0000
0000
0000
0000
,
0000
0000
0000
0000
,
0000
0000
0000
0000
,
0000
0000
0000
0000
,
0000
1000
0000
0000
,
0000
1000
0000
0000
,
0000
0001
0000
0000
,
0000
0001
0000
0000
,
0000
0010
0000
0000
,
0000
0010
0000
0000
,
0000
0100
0000
0000
,
0100
0000
0000
0000
,
1000
1000
0000
0000
,
0001
0001
0000
0000
,
0100
0000
0100
0000
,
0010
0000
0100
0000
,
0001
0001
0000
0000
,
1000
1000
0000
0000
,
0100
0000
0010
0000
,
0100
0000
0100
0000
,
1000
0000
0000
0000
,
0001
0000
0000
0000
,
0100
0000
0000
0000
,
0010
0000
0000
0000
,
1000
0000
1000
0000
,
0100
0000
0000
0000
,
0010
0000
0010
0000
,
0001
0000
0000
0000
,
0100
0000
0100
0000
,
0010
0010
0010
0000
,
1000
0000
0000
0000
,
0001
0000
0000
0000
,
1000
0000
0000
0100
,
0100
0000
0000
0010
,
0010
0000
0000
0001
,
0001
0000
0000
0000
,
0000
0100
0000
0000
,
0000
0100
0000
0000
,
0000
0010
0000
0000
,
0000
0010
0000
0000
,
0000
1000
0000
0000
,
0000
1000
0000
0000
,
0000
0001
0000
0000
,
0001
0000
0000
0000
,
0001
0001
0000
0000
,
1000
1000
0000
0000
,
0100
0000
0010
0000
,
0100
0000
0100
0000
,
1000
1000
0000
0000
,
0001
0001
0000
0000
,
0100
0000
0010
0000
,
0100
0000
0100
0000
,
0001
0000
0000
0000
,
1000
0000
0000
0000
,
0100
0000
0000
0000
,
0010
0000
0010
0000
,
0010
0000
0000
0000
,
0001
0000
0000
0000
,
1000
0000
0000
0000
,
1001
0000
0000
0000
,
0010
0010
0000
0000
,
0100
0100
0000
0000
,
0001
0000
1000
0000
,
0001
0000
0001
0000
,
0010
0010
0000
0000
,
0100
0100
0000
0000
,
1000
0000
0001
0000
,
0100
0000
0010
0010
;

//---------------dance-double - ----------------
#NOTEDATA:;
#CHARTNAME:;
#STEPSTYPE:dance-double;
#DESCRIPTION:;
#CHARTSTYLE:;
#DIFFICULTY:Challenge;
#METER:8;
#RADARVALUES:0.500393,0.528237,0.247170,0.120054,0.233046,444.000000,35.000000,17.000000,0.000000,0.000000,0.000000,0.000000,0.000000,0.500393,0.528237,0.247170,0.120054,0.233046,444.000000,35.000000,17.000000,0.000000,0.000000,0.000000,0.000000,0.000000;
#CREDIT:Ben Speirs;
#NOTES:
00000000
00000000
00000000
00000000
,
00000000
00000000
00000000
00000000
,
00000000
00000000
00000000
00000000
,
00000000
00000000
00000000
00000000
00000000
00000000
00000000
00000000
00000000
00000000
00000000
00000000
00010000
00002000
00000000
00000000
,
00103000
00110000
00010000
00110000
,
00100000
00000000
00100000
00010000
00000000
00010000
20000000
00000000
00000000
00000000
30100000
00000000
10000000
00000000
00000000
00000000
,
01010000
00000000
00000000
11000000
00000000
00000000
00010000
00000000
,
10000000
00000000
01000000
00000000
00100000
00000000
00010000
00000000
01000000
00000000
00010000
00000000
00100000
00002000
00000000
00000000
,
00013000
00001100
00000000
00001100
,
00001000
00000000
00001000
00000001
00000000
00000001
00000200
00000000
00000000
00000000
00000310
00000000
00001000
00000000
00000000
00000000
,
00000001
00000010
00000100
00000000
00001000
00000010
00000100
00000000
,
00000001
00001000
00000100
00000010
00000001
00001000
00000010
00000000
,
00001000
00000100
00010000
00001000
00010000
00000000
00000100
00001000
,
00000100
00000000
00001000
00000000
00000100
00000000
00010000
00000000
00001000
00000000
00000000
00000000
00010000
00002000
00000000
00000000
,
00103000
00000000
00000000
00100000
00010000
00000000
00000000
00000000
10000000
00000000
00100000
00000000
01000000
00000000
00010000
00000000
,
10000000
00000000
00000000
10000000
01000000
00000000
00000000
00000000
00100000
00000000
00010000
01000000
00010000
01000000
00010000
00000000
,
10000000
00000000
01000000
00000000
00100000
00000000
00010000
20000000
00000000
00000000
00000000
00000000
30010000
00000000
00000000
00000000
,
10000000
00000000
00100000
00000000
01000000
00000000
00010000
20000000
00000000
00000000
00000000
00000000
31000000
00100000
00000000
00000000
,
00010000
00000000
00000000
00010000
10000000
00000000
00100000
00000000
01000000
00000000
00010000
00000000
10000000
00000000
00000000
00000000
,
01000000
00000000
00000000
01000000
00100000
00000000
00010000
00000000
01000000
00000000
00001000
00000000
00010000
00000000
00000000
00000000
,
00011000
00000000
00000000
00000000
00100100
00000000
00000000
00000000
00010000
00000000
00001000
00010000
00000000
00010000
00001000
00000000
,
00100000
00000000
00010000
00000000
10000000
00000000
00100000
00000000
01000000
00000000
00010000
00100000
00000000
00100000
00001000
00000000
,
00010000
00000000
00000100
00000000
00001000
00000000
00000010
00000000
00000100
00000000
00000001
00001000
00000000
00001000
00000010
00000000
,
00000100
00000000
00000001
00000100
00000001
00000000
00001000
00000000
00000100
00000000
00000010
00000000
00000001
00000000
00000000
00000000
,
00001000
00000100
00001100
00000000
00000001
00000100
00000010
00001000
,
00000100
00010000
00011000
00000000
00010000
00001000
00100000
00010000
,
01000000
00100000
01100000
00000000
00100000
10000000
01000000
00100000
,
00010000
10000000
00010000
10000000
00020000
00000000
01030000
00000000
,
10100000
00000000
00000000
00010000
00000000
00000000
00100000
00000000
00110000
00000000
00000000
00010000
00000000
00000000
10000000
00000000
,
01000000
00000000
00100000
00000000
00010000
00000000
01000000
00000000
00001000
00000000
00000000
00001000
00000000
00000000
00100000
00000000
,
00010000
00000000
01000000
00000000
00100000
00000000
00010000
00000000
00001000
00000000
00000000
00001000
00000000
00000000
00010000
00000000
,
00000100
00000000
00000000
00000100
00000000
00000000
00001000
00000000
00000010
00000000
00000000
00000010
00000000
00000000
00000100
00000000
,
00000001
00001000
00000001
00001000
00000001
00000000
00001000
00000000
00000000
00000000
00001100
00000000
00000101
00000000
00000000
00000000
,
00001000
00000010
00001000
00000010
00001000
00000000
00000001
00000000
00000000
00000000
00001010
00000000
00000011
00000000
00000000
00000000
,
00001000
00000100
00010000
00001000
00000000
00011000
00011000
00000000
,
00100000
00000000
00010000
00000000
00100000
00000000
00001000
00000000
00001000
00000000
00000000
00000000
00010000
00002000
00000000
00000000
,
00103000
00110000
00001000
00011000
,
00100000
00000000
00100000
00010000
00000000
00010000
02000000
00000000
00000000
00000000
03100000
00000000
10000000
00000000
00000000
00000000
,
01010000
00000000
00000000
11000000
00000000
00000000
00010000
00000000
,
10000000
00000000
01000000
00000000
00100000
00000000
00010000
00000000
01000000
00000000
00100000
00000000
00010000
00002000
00000000
00000000
,
00103000
00101000
00010000
00010100
,
00001000
00000000
00001000
00000100
00000000
00000100
00000020
00000000
00000000
00000000
00000031
00000000
00001000
00000000
00000000
00000000
,
00000010
00001000
00000010
00000000
00000100
00000001
00000100
00000000
,
00000001
00000010
00000100
00001000
00000010
00000100
00000001
00000000
,
00001000
00000100
00010000
00001000
00010000
00000000
00000100
00001000
,
00000100
00000000
00010000
00000000
00010000
00000000
00001000
00000000
00010000
00000000
00000000
00000000
00001000
00200000
00000000
00000000
,
00310000
00000000
00000000
00010000
10000000
00000000
00100000
00000000
01000000
00000000
00010000
00000000
10000000
00000000
00000000
00000000
,
01000000
00000000
00000000
01000000
00100000
00000000
00010000
00000000
10000000
00000000
00100000
01000000
00100000
01000000
00100000
00000000
,
01000000
00010000
00100000
00001000
00010000
00000000
01010000
00000000
,
01000000
00010000
00100000
00001000
00010000
00000000
01010000
00000000
,
00010000
00100000
00001000
00010000
00000100
00001000
00000010
00000100
,
00000001
00001000
00000100
00000010
00000001
00001000
00000001
00000000
,
00001100
00000000
00000101
00000000
00001000
00000001
00001000
00000000
,
00000011
00000000
00001010
00000000
00000001
00001000
00000001
00000000
,
00001000
00000100
00000010
00000001
00000100
00000010
00001000
00000100
,
00010000
00000000
00001000
00000000
00100000
00010000
00000000
20000000
00000000
00000000
30100000
00000000
01000000
00000000
00000000
00000000
,
00010000
00000000
01000000
00000000
00010000
00000000
10000000
00000000
00010000
01000000
00010000
00000000
10000000
00000000
00000000
00000000
,
10000000
00000000
01000000
00000000
10000000
00000000
00010000
00000000
10000000
01000000
10000000
00000000
00010000
00000000
00000000
00000000
,
10000000
00000000
01000000
00000000
00100000
00000000
00010000
00000000
01000000
00100000
01000000
00000000
00010000
00000000
10000000
00000000
,
00100000
01000000
00100000
10000000
01000000
10000000
00010000
01000000
00010000
10000000
00000000
00000000
,
01010000
00000000
01000000
00000000
00100000
00000000
10000000
01000000
10000000
00000000
00100000
00000000
01000000
00000000
00010000
00000000
,
01010000
00000000
01000000
00000000
00100000
00000000
10000000
01000000
10000000
00000000
00000000
00000000
00010000
00200000
00000000
00000000
,
00310000
00000000
00000000
00010000
00100000
00000000
00001000
00000000
00010000
00000000
00000100
00000000
00001000
00000000
00000010
00000000
,
00000100
00000000
00000000
00000100
00000010
00000000
00001000
00000000
00000100
00000000
00000010
00000001
00000010
00000000
00000000
00000000
,
00001100
00000000
00000100
00000000
00000010
00000000
00000001
00000100
00000001
00000000
00000000
00000000
00001100
00000000
00000100
00000000
,
00000010
00000000
00000001
00000000
00000100
00000000
00000001
00001000
00000001
00000000
00000000
00000000
00000100
00000020
00000000
00000000
,
00001030
00000000
00000000
00000100
00000000
00000000
00010000
00000000
00000000
00000000
00001000
00000000
00100000
00000000
00010000
00000000
,
10000000
00000000
00000000
00100000
00000000
00000000
01000000
00000000
00010000
00000000
10000000
00000000
02000000
00000000
00000000
00000000
,
03000000
00000000
00000000
00000000
;
