#TITLE:Flawless (Go To The City);
#SUBTITLE:;
#ARTIST:George Michael;
#TITLETRANSLIT:;
#SUBTITLETRANSLIT:;
#ARTISTTRANSLIT:;
#GENRE:;
#CREDIT:;
#BANNER:Flawless (Go To The City)-bn.png;
#BACKGROUND:Flawless (Go To The City)-bg.png;
#LYRICSPATH:;
#CDTITLE:;
#MUSIC:Flawless (Go To The City).mp3;
#OFFSET:-1.780;
#SAMPLESTART:61.540;
#SAMPLELENGTH:17.980;
#SELECTABLE:YES;
#BPMS:0.000=124.950
;
#STOPS:
;
#BGCHANGES:;
#KEYSOUNDS:;
#ATTACKS:;

//---------------dance-single - ----------------
#NOTES:
     dance-single:
     :
     Beginner:
     1:
     0.084,0.120,0.000,0.000,0.000,69.000,0.000,0.000,0.000,0.000,0.000,0.084,0.120,0.000,0.000,0.000,69.000,0.000,0.000,0.000,0.000,0.000:
0000
0000
0000
0000
,
0000
0000
0000
0000
,
0000
0000
0000
0000
,
0000
0000
0000
0000
,
0010
0000
0000
0000
,
0010
0000
0000
0000
,
0100
0000
0000
0000
,
0100
0000
0000
0000
,
0001
0000
0000
0000
,
0001
0000
0000
0000
,
1000
0000
0000
0000
,
1000
0000
0000
0000
,
0100
0000
0000
0000
,
0100
0000
0000
0000
,
1000
0000
0000
0000
,
1000
0000
0000
0000
,
0010
0000
0000
0000
,
0010
0000
0000
0000
,
0100
0000
0000
0000
,
0100
0000
0000
0000
,
0001
0000
0000
0000
,
0001
0000
0000
0000
,
1000
0000
0000
0000
,
1000
0000
0000
0000
,
0010
0000
0010
0000
,
0010
0000
0000
0000
,
0100
0000
0100
0000
,
0100
0000
0000
0000
,
0001
0000
0001
0000
,
0001
0000
0000
0000
,
1000
0000
1000
0000
,
1000
0000
0000
0000
,
0010
0010
0000
0000
,
0010
0000
0000
0000
,
1000
0000
0000
0000
,
0001
0000
0000
0000
,
0100
0100
0000
0000
,
0100
0000
0000
0000
,
0001
0000
0000
0000
,
1000
0000
0000
0000
,
0010
0010
0010
0000
,
0010
0000
0010
0000
,
0010
0000
0000
0000
,
1000
0000
0000
0000
,
0100
0100
0100
0000
,
0100
0000
0100
0000
,
0100
0000
0000
0000
,
1000
0000
0000
0000
,
0001
0001
0000
0000
,
0001
0000
0000
0000
,
1000
0000
0000
0000
,
0100
0000
0000
0000
,
0010
0000
0000
0000
,
0010
0000
0000
0000
,
1000
0000
0000
0000
,
0001
0001
0001
0001
,
0001
0000
0000
0000
;

//---------------dance-single - ----------------
#NOTES:
     dance-single:
     :
     Medium:
     6:
     0.309,0.268,0.120,0.128,0.000,224.000,14.000,15.000,0.000,0.000,0.000,0.309,0.268,0.120,0.128,0.000,224.000,14.000,15.000,0.000,0.000,0.000:
0000
0000
0000
0000
,
0000
0000
0000
0000
,
0000
0000
0000
0000
,
0000
0000
0000
0000
,
0010
0100
0001
1000
,
0100
1000
0010
0100
,
0020
0030
0200
0300
,
0001
1000
2002
3003
,
0100
1000
0001
0010
,
0001
1000
0010
0100
,
0020
0030
2000
3000
,
0001
0100
0202
0303
,
0010
0000
1000
0000
0001
1000
0100
0000
,
1000
0010
0100
0010
,
1000
0000
0001
0000
0100
0001
0010
0000
,
0001
1000
2002
3003
,
0100
0000
1000
0000
0010
0100
0010
0000
,
1000
0001
1000
0100
,
0010
0000
0001
0000
0100
0100
0000
0000
,
0010
0000
0010
0000
0100
0100
0000
0000
,
0010
0000
1000
0000
0001
1000
0100
0000
,
1000
0010
0100
0001
,
1000
0000
0001
0000
0100
0100
0000
0000
,
0010
0000
0010
0000
0100
0100
0000
0000
,
0001
0000
1000
0000
0100
1000
0001
0000
,
1000
0000
0010
0000
0100
0001
0010
0000
,
0001
0000
0010
0000
0100
1000
0010
0000
,
1000
0000
0001
0000
1000
0001
0100
0000
,
0010
0000
1000
0000
0000
0010
0100
0000
,
0001
0000
1000
0000
0000
0001
0010
0000
,
0100
1000
0010
0110
,
0001
0101
1000
1100
,
0010
0000
0100
0000
0000
1001
0000
0000
,
0010
0000
1000
0000
0010
0100
0001
0000
,
1000
0000
0001
0000
0100
0100
0001
0000
,
0010
0000
0100
0000
1000
1000
0001
0000
,
1000
0000
0010
0000
0000
1010
0000
0000
,
0010
0000
0100
0000
0001
1000
0100
0000
,
1000
0000
0001
0000
0010
0010
0001
0000
,
1000
0000
0010
0000
0100
0100
0010
0000
,
1000
0001
1000
0001
0000
1001
0000
0000
,
0010
0000
0100
0000
0001
1000
0100
0000
,
1000
0010
1000
0001
,
0010
0000
0001
0000
0100
0010
1000
0000
,
0010
1000
0000
0010
0100
0000
0001
0100
,
0000
0010
1000
0000
0001
0000
0100
0000
,
1001
0000
0010
0000
0100
0100
0001
0000
,
1000
0000
0001
0000
0010
0010
0001
0000
,
1000
0100
0010
0001
0000
0101
0000
0000
,
0010
0100
0001
1000
,
0100
0000
0100
0000
1000
0001
0100
0000
,
0010
0000
0010
0000
1000
0001
0100
0000
,
0010
0000
0100
0000
0000
1010
0000
0000
,
0100
0000
0001
0000
1000
0100
0010
0000
,
0001
1000
0010
0000
,
2000
3002
0203
0310
,
0110
0000
0000
0000
0000
2002
0000
3003
;

//---------------dance-single - ----------------
#NOTES:
     dance-single:
     :
     Hard:
     10:
     0.406,0.389,0.163,0.120,0.163,299.000,19.000,14.000,0.000,0.000,0.000,0.406,0.389,0.163,0.120,0.163,299.000,19.000,14.000,0.000,0.000,0.000: // measure 0
0000
0000
0000
0000
,  // measure 1
0000
0000
0000
0000
,  // measure 2
0000
0000
0000
0000
,  // measure 3
0000
0000
0000
0000
,  // measure 4
0010
0000
1000
0001
0100
0000
0010
0000
,  // measure 5
0100
0000
0001
0000
1000
0000
0001
0010
,  // measure 6
0010
0000
0000
0010
0000
0000
0000
0000
0001
0000
1000
0000
0000
0000
0000
0000
,  // measure 7
0010
0000
0100
0000
0001
1000
0000
0000
,  // measure 8
0010
0000
0101
0000
0010
1000
0001
0000
,  // measure 9
1000
0000
0010
0000
1000
0100
0001
0100
,  // measure 10
0000
0000
1010
0000
0010
0100
0001
0100
,  // measure 11
0000
0000
1010
0000
0001
1000
0000
0010
,  // measure 12
0010
0000
0000
0010
0000
0000
0000
0000
0100
0000
0000
0000
0101
0000
0000
0000
,  // measure 13
0010
0000
0000
0000
1000
0000
0000
0000
0001
1000
0000
0000
0010
0000
0010
0000
,  // measure 14
0100
0000
0001
0010
0100
1000
0010
0000
,  // measure 15
1000
0000
0001
0100
1000
0100
0001
0000
,  // measure 16
0100
0000
0000
0001
0000
0000
1000
0000
0000
0000
0000
0000
0000
0000
0000
0000
,  // measure 17
0010
1000
0001
1000
0100
0000
1000
0100
,  // measure 18
0010
0001
0100
0000
0010
0100
0000
0000
,  // measure 19
0001
1000
0001
1000
0010
0100
0000
0000
,  // measure 20
0101
0000
1000
0001
0000
0000
0110
0000
,  // measure 21
0001
0100
1000
0000
0010
0000
0101
0000
,  // measure 22
1000
0000
1100
0000
0010
1000
0001
0000
,  // measure 23
1000
0001
1000
0001
0100
0010
0000
0000
,  // measure 24
1000
0000
0000
0010
0000
0000
0100
0000
0001
0000
0000
1000
0000
0000
0100
0000
,  // measure 25
0010
0000
0000
0001
0000
0000
1000
0000
0000
0000
0000
0000
0000
0000
0000
0000
,  // measure 26
0010
1000
0001
0000
0100
0100
0000
0000
,  // measure 27
0110
0000
0001
1000
0100
0100
0000
0000
,  // measure 28
0010
0000
0000
0001
0000
0000
0100
0000
0001
0000
0000
1000
0000
0000
0010
0000
,  // measure 29
1000
0000
0000
0100
0000
0000
0010
0000
0000
0000
0000
0000
0000
0000
0000
0000
,  // measure 30
0001
1000
0100
0000
1000
0010
0100
0000
,  // measure 31
0010
1000
0100
1000
0001
0010
0100
1000
,  // measure 32
0010
0100
0000
0100
0010
0000
1000
0000
0000
0000
2002
0000
0000
0000
3003
0000
,  // measure 33
0000
0000
0010
1000
0100
1000
0001
0000
,  // measure 34
0100
0000
0010
0000
1000
0001
0000
0000
1000
0000
1000
0000
0000
0000
0000
0000
,  // measure 35
1010
0000
0000
0100
0010
0000
0100
0000
0001
0000
0001
0000
1000
0000
0100
0000
,  // measure 36
1000
0010
0000
0010
1000
0000
0001
0000
0000
0000
2002
0000
0000
0000
3003
0000
,  // measure 37
0000
0000
0100
0001
0100
1000
0100
0000
,  // measure 38
0010
0100
0000
0000
0001
1000
0000
0000
0100
0000
0100
0000
0000
0000
0000
0000
,  // measure 39
0011
0000
0000
0010
0001
0000
0100
0000
0010
0000
0010
0000
1000
0000
0000
0000
,  // measure 40
0001
0000
1000
0000
0010
0000
0100
0010
0000
0100
0010
0000
1000
0000
0000
0000
,  // measure 41
0001
0000
1000
0000
0100
0000
0010
0100
0000
0010
0100
0000
1000
0000
0000
0000
,  // measure 42
0001
0000
1000
0000
0010
0000
1000
0001
0000
0000
0100
0000
0000
0010
0000
0000
,  // measure 43
0100
0000
0000
0001
0000
0000
1000
0000
0001
0000
0100
0000
0010
0000
0000
0000
,  // measure 44
1000
0100
0001
0010
0001
0100
0010
0100
,  // measure 45
0001
0010
0100
1000
0010
1000
0001
0000
,  // measure 46
0100
0001
0000
0000
1000
0010
0000
0000
0100
0000
0100
0000
0000
0000
0000
0000
,  // measure 47
1001
0000
0000
1000
0100
0000
1000
0000
0010
0000
0010
0000
1000
0000
0001
0000
,  // measure 48
0100
0010
0000
0010
0100
0000
0001
0000
0000
0000
2002
0000
0000
0000
3003
0000
,  // measure 49
0100
0000
0000
0100
0000
0000
0000
0000
0000
0000
0000
0000
0001
0000
1000
0000
,  // measure 50
0100
0010
0001
1000
0010
0010
0000
0000
,  // measure 51
0110
0000
0000
0100
0010
0000
1000
0000
0001
0000
0001
0000
1000
0000
1000
0000
,  // measure 52
0100
0010
0000
0001
1000
0000
0001
0000
0000
0000
2002
0000
0000
0000
3003
0000
,  // measure 53
0000
0000
0010
0100
0001
0100
0010
1000
,  // measure 54
0001
0000
0000
1000
0000
0000
0110
0000
0000
0000
0000
0000
0000
0000
0000
0000
,  // measure 55
2000
3200
0320
0032
,  // measure 56
0103
0010
0000
1000
0100
0000
0010
0000
0000
0000
2002
0000
0000
0000
3003
0000
;

//---------------dance-single - ----------------
#NOTES:
     dance-single:
     :
     Easy:
     3:
     0.196,0.194,0.017,0.034,0.000,154.000,2.000,4.000,0.000,0.000,0.000,0.196,0.194,0.017,0.034,0.000,154.000,2.000,4.000,0.000,0.000,0.000:
0000
0000
0000
0000
,
0000
0000
0000
0000
,
0000
0000
0000
0000
,
0000
0000
0000
0000
,
0010
0000
1000
0000
,
0001
0000
1000
0000
,
0010
0000
1000
0000
,
0100
0100
0100
0000
,
1000
0000
0010
0000
,
1000
0000
0001
0000
,
0010
0000
0001
0000
,
0100
0100
0100
0000
,
0001
0000
1000
0000
,
0010
0000
1000
0000
,
0100
0000
1000
0000
,
0001
0001
0001
0000
,
1000
0010
0100
0000
,
0010
0000
1000
0000
,
0001
0000
1000
0000
,
0100
0100
0100
0000
,
1000
0001
0010
0000
,
0001
0000
1000
0000
,
0001
0000
0100
0000
,
0010
0010
0010
0000
,
1000
0001
0100
0000
,
0010
0100
0010
0000
,
0100
0001
1000
0000
,
0001
0001
0001
0000
,
0010
0001
1000
0000
,
0100
1000
0010
0000
,
0100
0010
1000
0000
,
0001
1000
0100
0010
,
0002
0000
0000
0000
0000
1003
0000
0000
,
0010
0100
0010
1000
,
0001
0001
1000
1000
,
0010
1000
0001
0000
,
0002
0000
0000
0000
0000
0103
0000
0000
,
0010
1000
0001
1000
,
0100
0100
1000
1000
,
0010
1000
0001
0000
,
2000
0000
0000
0000
0000
3001
0000
0000
,
0100
0010
1000
0001
,
1000
1000
0001
0001
,
0010
0001
0100
0000
,
0020
0000
0000
0000
0000
0130
0000
0000
,
0010
1000
0001
1000
,
0100
0100
1000
1000
,
0010
1000
0001
0000
,
1000
0001
0100
0100
,
0001
1000
0100
0100
,
1000
0000
0000
0001
0000
0000
0100
0000
,
0000
0000
0010
0010
,
0010
1000
0001
1000
,
0100
0010
0001
0100
,
0010
0100
0001
0000
,
1000
0100
0010
0001
,
1001
0000
0000
0000
0000
1001
0000
0000
;
