#TITLE:You Said No;
#ARTIST:Busted;
#FILE:You Said No.mp3;
#BPM:164.000;
#GAP:360;
#SAMPLESTART:83.280;
#SAMPLELENGTH:14.340;
#FREEZE:480.000=720.000;
#CHANGEBPM:1160.000=82.000;
#SINGLE:MANIAC:11:
00000000
00000000
00000000
00000000
60042040
80026040
20046040
80208460
20084060
40028060
40084060
20802640
1!40208020
80602210
B!60208040
80402230
82608240
64804620
80206840
86402460
A0640820
60820460
40820623
010B0A04
20460820
80640820
60420860
40846480
20826082
4!40608010
B0002060
40204080
20603001
00B!B0B080
46903080
20608020
80609001
00B!B0B020
82604848
00262600
8!80A!201646
00262600
8!809!60B242
00484800
2080700B
00300A00
B0104!4000
B!60000000
00003060
40242040
60262080
40646824
828420B0
A04620A0
30824010
B0464820
68201046
02804082
06802086
046B0703
01086082
04602084
02806042
08604062
42609028
06408028
04208064
08470B0A
03042086
04802084
02806048
02604068
24826!6000
[00000000000000003!20000000]
[00000000000000000020008!80]
00008000
;
#SINGLE:ANOTHER:7:
00000000
00000000
00000000
00000000
80004060
20006080
20008060
40204080
20008040
60004020
80006080
20408000
B0402080
60208020
60806040
20408020
80402040
60806040
80206040
802000B0
B0020040
60080090
9002000B
0B0B0B00
70020040
600200A0
A0020000
80406040
2!20001!4000
B!60000000
B0008080
40604080
20604046
062!200080
80A08040
20406080
20406068
082!200080
8080A068
00608600
00002042
00402400
00008282
00828200
0000B00B
00A00A00
60208!8000
00000000
0000A020
20208080
80804040
40406060
60604060
20828040
60828060
40828040
60B0B002
00408002
00A0A002
0003010B
0A003004
00808004
00101004
00008040
60303008
00406004
00A0A006
000A0B01
03001008
00406002
00B0B008
00004060
28402!2000
[0000000000000000A!80000000]
[0000000000008000000000B!B0]
0000B000
;
#SINGLE:BEGINNER:2:
00000000
00000000
00000000
00000000
80000000
80000000
80000000
80008000
20000000
20000000
20000000
20002000
20000000
60000000
40000000
80000000
40000000
20000000
80000000
60000000
40004000
40004000
40004000
40000000
80008000
80008000
80008000
80000000
20000000
60000000
B0002000
00002000
00004000
00004000
00006000
00006000
00008000
00008000
00002000
00000000
0000B000
00000000
00008000
00000000
0000B000
00000000
00002000
00000000
00008000
00000000
00006000
00000000
00004040
40006060
60008080
80002020
20004000
40004000
40004000
40004000
00006000
60006000
60006000
60006000
00008000
80008000
80008000
80008000
00002000
20002000
20002000
20002000
0000A000
;
#SINGLE:BASIC:4:
00000000
00000000
00000000
00000000
80000000
40000000
60000000
80006000
40000000
80000000
40000000
20004000
80402000
40204000
80406000
80608000
60004000
80002000
60004000
20402000
40006020
60004020
40008000
40006000
80006020
60004060
40002000
40802060
2!20003!6000
B!40000000
B0004000
60002000
60004000
40004000
00008000
40006000
80002000
20002000
0000B000
00A00000
0000A000
00B00000
00002040
00602000
00008040
60402080
604!406!6000
00000000
00B02000
20008000
80004000
40006000
60000020
200000B0
B0000080
800000B0
B0002000
40008000
20006000
40006080
20408000
40006000
40008000
40008020
80004000
60004000
20008000
60004020
80602000
60004000
60008020
80006000
4000B!B000
00000000
00000000
0000B000
;
