#TITLE:Who Knew;
#SUBTITLE:;
#ARTIST:P!nk;
#TITLETRANSLIT:;
#SUBTITLETRANSLIT:;
#ARTISTTRANSLIT:;
#CREDIT:;
#BANNER:Who Knew-bn.png;
#BACKGROUND:Who Knew-bg.png;
#LYRICSPATH:;
#CDTITLE:;
#MUSIC:Who Knew.mp3;
#OFFSET:-0.060;
#SAMPLESTART:34.300;
#SAMPLELENGTH:14.360;
#SELECTABLE:YES;
#BPMS:0.000=139.980;
#STOPS:;
#BGCHANGES:0.000=Who Knew.avi=1.000=1=1=0,
99999=-nosongbg-=1.000=0=0=0 // don't automatically add -songbackground-
;

//---------------dance-single - ----------------
#NOTES:
     dance-single:
     :
     Beginner:
     1:
     0.101,0.167,0.023,0.000,0.000: // measure 1
0000
0000
0000
0000
,  // measure 2
0000
0000
0000
0000
,  // measure 3
1000
0000
0000
0000
,  // measure 4
0010
0000
0000
0000
,  // measure 5
0100
0000
0000
0000
,  // measure 6
0001
0000
0000
0000
,  // measure 7
0010
0000
0000
0000
,  // measure 8
0001
0000
0000
0000
,  // measure 9
1000
0000
0000
0000
,  // measure 10
0010
0000
0000
0000
,  // measure 11
1000
0000
0000
0000
,  // measure 12
0100
0000
0000
0000
,  // measure 13
0010
0000
0000
0000
,  // measure 14
0001
0000
0000
0000
,  // measure 15
1000
0000
0000
0000
,  // measure 16
0010
0000
0000
0000
,  // measure 17
1000
0000
0000
0000
,  // measure 18
0100
0000
0000
0000
,  // measure 19
1000
0000
0000
0000
,  // measure 20
0010
0000
0000
0000
,  // measure 21
0100
0000
0100
0000
,  // measure 22
0100
0000
0100
0000
,  // measure 23
0100
0000
0000
0000
,  // measure 24
0001
0000
0000
0000
,  // measure 25
1000
0000
1000
0000
,  // measure 26
1000
0000
1000
0000
,  // measure 27
1000
0000
0000
0000
,  // measure 28
0100
0000
0000
0000
,  // measure 29
0010
0010
0000
0000
,  // measure 30
0010
0000
0000
0000
,  // measure 31
0001
0001
0000
0000
,  // measure 32
0001
0000
0000
0000
,  // measure 33
0100
0100
0000
0000
,  // measure 34
0110
0000
0000
0000
,  // measure 35
1000
0000
0000
0000
,  // measure 36
0010
0000
0000
0000
,  // measure 37
0100
0000
0000
0000
,  // measure 38
0001
0000
0000
0000
,  // measure 39
0010
0000
0000
0000
,  // measure 40
0100
0000
0000
0000
,  // measure 41
1000
0000
0000
0000
,  // measure 42
0010
0000
0010
0000
,  // measure 43
0010
0000
0000
0000
,  // measure 44
1000
0000
0000
0000
,  // measure 45
0001
0000
0000
0000
,  // measure 46
0010
0000
0010
0000
,  // measure 47
0010
0000
0000
0000
,  // measure 48
0001
0000
0000
0000
,  // measure 49
1000
0000
0000
0000
,  // measure 50
0000
0000
0000
0000
,  // measure 51
0100
0100
0000
0000
,  // measure 52
0100
0000
0000
0000
,  // measure 53
0010
0010
0000
0000
,  // measure 54
0010
0000
0000
0000
,  // measure 55
1000
1000
0000
0000
,  // measure 56
1000
0000
0000
0000
,  // measure 57
0001
0001
0000
0000
,  // measure 58
0001
0000
0000
0000
,  // measure 59
1001
0000
0000
0000
,  // measure 60
0100
0000
0000
0000
,  // measure 61
1000
0000
0000
0000
,  // measure 62
0100
0000
0000
0000
,  // measure 63
0010
0000
0000
0000
,  // measure 64
0001
0000
0000
0000
,  // measure 65
0100
0000
0100
0000
,  // measure 66
0100
0000
0100
0000
,  // measure 67
0100
0000
0000
0000
,  // measure 68
0010
0000
0000
0000
,  // measure 69
1000
0000
0000
0000
,  // measure 70
0001
0001
0001
0001
,  // measure 71
0001
0000
0000
0000
,  // measure 72
1000
0000
0000
0000
,  // measure 73
0110
0000
0000
0000
,  // measure 74
1000
0000
1000
0000
,  // measure 75
0100
0000
0000
0000
;

//---------------dance-single - ----------------
#NOTES:
     dance-single:
     :
     Medium:
     6:
     0.264,0.285,0.045,0.015,0.000:
0000
0000
0000
0000
,
0000
0000
0000
0000
,
0010
0000
0100
0000
0000
0001
0100
0000
,
0010
0000
1000
0000
0000
0100
1000
0000
,
0010
0000
1000
1000
0000
0100
0000
0100
,
0000
0000
1000
1000
0000
0100
0000
0100
,
0000
0000
0010
0010
0000
0001
0000
0001
,
0000
0000
0010
0010
0000
0001
0000
0001
,
0001
0000
0000
0100
,
0100
0000
0000
0010
,
0010
0000
0000
0000
,
0000
0000
0000
0000
,
0000
0000
1000
1000
0000
0100
0000
0100
,
0000
0000
0010
0010
0000
0100
0000
0100
,
0000
0000
1000
1000
0000
0001
0000
0001
,
0000
0000
0100
0100
0000
0010
0000
0010
,
0100
0000
0000
0001
,
0100
0000
0000
1000
,
0100
0000
0000
0000
,
1000
0000
0000
0010
,
1000
0000
0000
0100
0000
0000
1000
0000
,
0001
0000
0000
0010
0000
0001
0000
0100
,
0000
0000
0000
0000
0000
0010
0100
0010
,
0000
0000
0000
1000
0000
0000
0001
0000
,
1000
0000
0000
0100
0000
0000
1000
0000
,
0100
0000
0000
0010
0000
0000
0000
0001
,
0000
0000
0000
0000
0000
0100
0010
0100
,
0000
0000
0000
1000
0000
0100
0000
0000
,
1000
0000
0000
0001
0000
0001
0000
0000
,
0010
0000
0000
0100
0000
0100
0000
0000
,
0010
0000
0000
0001
0000
0100
0000
1000
,
0000
0010
0000
0001
0000
0100
0000
0000
,
0010
0000
0000
0100
0000
0100
0000
0000
,
2002
0000
3003
0000
,
0100
0000
1000
0100
0000
0000
1000
0000
,
0000
0000
0010
0100
0000
0000
0010
0000
,
0100
0000
0001
0000
0000
0100
0001
0000
,
0100
0010
0000
1000
,
0100
0000
1000
1000
0000
0001
0000
0010
,
0000
0100
0000
1000
0000
0010
0000
0000
,
0000
0000
0100
0100
0000
0010
0000
1000
,
0000
0001
0000
1000
0000
0100
0000
0000
,
1000
0000
0100
1000
0000
1000
0100
0000
,
1000
0100
1000
0100
,
1000
0000
0100
1000
0000
1000
0100
0000
,
1000
0100
1000
0100
,
0000
0000
1000
1000
0000
0010
0000
0010
,
0000
1000
0000
1000
0000
0001
0000
0000
,
0000
0000
0010
0010
0000
0100
0000
0000
,
0000
0000
0000
1001
,
1001
0000
0000
0100
0000
0000
1000
0000
,
0001
0000
0000
0100
0000
0010
0000
1000
,
0000
0000
0000
0000
0000
0100
1000
0100
,
0000
0000
0000
1000
0000
0000
0010
0000
,
0100
0000
0000
0001
0000
0000
0010
0000
,
0001
0000
0000
1000
0000
0000
0000
0010
,
0000
0000
0000
0000
0000
0100
0010
0100
,
0000
0000
0000
0001
0000
0100
0000
0000
,
0010
0000
1000
1000
0000
0100
0000
0000
,
0010
0000
0001
0001
0000
0100
0000
0000
,
0001
0000
1000
1000
0000
0100
0000
0010
,
0000
0001
0000
0100
0000
0010
0000
0000
,
0100
0000
0010
0010
0000
0100
0000
0000
,
0001
0000
1000
1000
0000
0001
0000
0000
,
0010
0000
0100
0100
0000
1000
0000
0010
,
0000
0100
0000
0010
0000
1000
0000
0000
,
0100
0000
0010
0010
0000
0001
0000
0000
,
0100
0000
0001
0001
0000
1000
0000
0000
,
0100
0000
1000
1000
0000
0010
0000
0100
,
0000
0010
0000
1000
0000
0001
0000
0000
,
0010
0000
0001
0001
0000
1000
0000
0000
,
0100
0000
0000
1000
0000
1000
0000
0000
,
1100
0000
0010
0000
,
1000
0000
0001
0000
,
0010
0000
0001
0000
,
0100
0000
0000
0110
0000
1001
0000
0000
;

//---------------dance-single - ----------------
#NOTES:
     dance-single:
     :
     Hard:
     9:
     0.415,0.427,0.181,0.105,0.000:
0000
0000
0000
0000
,
0000
0000
0000
0000
,
0010
0000
0100
0000
0000
0001
0100
0001
,
0000
0000
1000
0000
0000
0100
1000
0010
,
0010
0000
0100
0001
0000
1000
0000
0200
,
0000
0000
1300
0100
0000
0010
0000
0002
,
0000
0000
0103
0010
0000
1000
0000
0002
,
0000
0000
0013
0100
0000
1000
0000
0010
,
0100
0000
0000
0010
0000
1000
0100
1000
,
0001
0000
0000
0100
0000
0001
1000
0001
,
0100
0000
0001
0000
0000
1000
0100
1000
,
0000
0000
0010
0000
0000
0100
0010
0100
,
0100
0000
0001
0100
0000
0010
0000
2000
,
0000
0000
3100
1000
0000
0001
0000
0020
,
0000
0000
0031
0100
0000
0010
0000
0200
,
0000
0000
0310
0100
0000
0001
0000
1000
,
0100
0000
0000
1000
0000
0010
0100
0010
,
1000
0000
0000
0001
0000
0010
0001
0010
,
0100
0000
1000
0000
0000
0010
0100
0010
,
0000
0000
1000
0000
0000
0001
1000
0001
,
0100
0000
0100
0010
0000
0010
1000
0000
,
0001
0000
0001
1000
0000
1000
0100
0000
,
0020
0000
0000
0000
0030
0001
0100
0001
,
0000
1000
0100
1000
0000
0010
0100
0000
,
0001
0000
0001
1000
0000
1000
0100
0000
,
0010
0000
0010
0100
0000
0100
1000
0000
,
0020
0000
0000
0030
0000
0100
0001
0100
,
0000
0010
1000
0010
0000
1000
0001
0000
,
0100
0000
0000
0110
0000
1001
0000
0000
,
0010
0000
0000
1010
0000
0101
0000
0000
,
0010
0000
0000
0001
0000
0010
0000
1000
,
0000
0010
0000
0011
0000
1001
0000
0000
,
0100
0000
0000
1100
0000
0110
0000
0000
,
2000
0000
0000
0001
0000
3001
0000
0000
,
0010
0000
0100
0010
0000
1000
0100
1000
,
0010
0000
0100
0001
0000
0100
0001
0100
,
0010
0000
1000
0100
0000
1000
0100
1000
,
0020
0230
0302
2003
,
3100
0000
1000
0010
0000
0100
0010
0100
,
0000
0010
0000
1010
0000
1001
0000
0000
,
0001
0000
1000
0100
0000
0001
0000
1000
,
0100
1000
0010
0000
0100
0010
0100
0000
,
0001
0000
0100
0001
0000
0100
0010
0000
,
1000
0000
0100
1000
0000
1000
0010
0000
,
0100
0000
0001
0100
0000
1000
0100
0000
,
1000
0100
1000
0100
0010
0001
0010
0001
,
0100
0000
0010
0100
0000
0001
0000
0100
,
0000
0010
1000
0100
0000
1100
0000
0000
,
1000
0100
1000
0010
0000
0200
0000
0000
,
0000
0000
0300
0110
,
1001
0000
0100
1000
0000
1000
0100
0000
,
1010
0000
0100
0010
0000
0010
0100
0000
,
0101
0000
0000
0000
0000
0100
0001
1000
,
0000
0100
1000
0001
0000
1000
0100
0000
,
1010
0000
0100
0001
0000
0100
0010
0000
,
1010
0000
0010
0100
0000
0001
1000
0000
,
0100
0000
0000
0000
0000
1000
0100
1000
,
0000
0001
0100
0001
0000
1000
0100
0000
,
0010
0000
0010
0100
0000
0100
0000
0010
,
0001
0000
0100
0010
0000
0010
0000
0100
,
0001
0000
1000
0100
0000
1000
0000
0010
,
1000
0001
0000
0100
0000
0010
0000
0100
,
0001
0000
1000
0100
0000
0010
0000
0001
,
0010
0100
1000
0001
0000
1000
0000
0010
,
1000
0001
0100
0010
0000
0100
0000
0110
,
0000
1001
0000
0110
0000
1001
0000
0000
,
0100
0000
1000
0100
0000
1000
0000
0010
,
0100
0000
0001
1000
0000
0100
0000
1000
,
0100
0010
0001
0100
0000
0010
0100
0001
,
0010
0100
0010
0001
1000
0100
0000
0000
,
1000
0000
0010
0100
0000
1000
0010
0100
,
0001
0000
0010
0100
0010
0001
1000
0000
,
0110
0000
0010
0100
0000
0100
0010
0000
,
1000
0000
0100
1000
0000
1000
0100
0000
,
1000
0000
0001
0100
0000
0100
0010
0000
,
0000
0000
0000
0110
0000
1001
0000
0000
;

//---------------dance-single - ----------------
#NOTES:
     dance-single:
     :
     Easy:
     3:
     0.174,0.278,0.060,0.000,0.000:
0000
0000
0000
0000
,
0000
0000
0000
0000
,
1000
0000
0010
0000
,
1000
0000
0000
0000
,
0001
0000
0100
0000
,
0010
0000
0010
0000
,
1000
0000
0001
0000
,
0100
0000
0100
0000
,
0001
0000
0000
0000
,
1000
0000
0000
0000
,
0010
0000
0000
0000
,
0010
0000
0000
0000
,
1000
0000
0100
0000
,
1000
0000
0010
0000
,
0100
0000
0010
0000
,
1000
0000
0001
0000
,
0010
0000
0000
0000
,
0001
0000
0000
0000
,
0100
0000
0000
0000
,
0010
0000
0000
0000
,
1000
0100
1000
0000
,
0010
1000
0010
0000
,
0100
0000
0001
0000
,
0100
0000
0010
0000
,
1000
0001
1000
0000
,
0010
0100
0010
0000
,
0100
0000
0001
0000
,
0010
0000
0010
0000
,
1001
0000
0000
0100
,
0100
0000
0000
1000
,
1000
0000
0000
0000
,
0010
1000
0100
0010
,
0001
0000
0000
0000
,
1001
0000
0000
0000
,
0010
0000
0010
0000
,
1000
0000
0000
0000
,
0100
0000
0100
0000
,
0010
0000
0000
0000
,
0001
0000
0000
0000
,
1000
0000
0000
0000
,
0010
1000
0100
0100
,
0010
0001
1000
1000
,
0001
0000
0000
0000
,
1000
0000
0000
0000
,
0010
0000
0000
0000
,
1000
1000
0100
0100
,
0010
0000
0000
0000
,
0001
0000
1000
0000
,
0100
0000
0000
0000
,
0000
0000
0000
1000
,
1000
0000
0100
0000
,
1000
0000
0001
0000
,
0010
0001
0100
0100
,
0010
1000
0001
1001
,
0100
0000
0001
0000
,
1000
0000
0100
0000
,
1000
1000
0010
0100
,
0001
0001
0100
0110
,
1000
0000
0100
0000
,
1000
0000
0001
0000
,
0010
0010
0100
1000
,
0010
0100
0010
0110
,
0001
0000
0100
0000
,
0010
0000
1000
0000
,
0100
0100
1000
0001
,
0010
0001
0100
0101
,
0010
0000
0100
0000
,
0010
0000
1000
0000
,
0100
0100
1000
0010
,
1000
1000
0010
0110
,
1000
0000
0100
0000
,
1000
0000
0001
0000
,
1001
0000
0000
0000
,
0100
0000
0100
0000
,
0100
0000
0000
0000
;
