#TITLE:Waterline;
#SUBTITLE:-Ireland 2012-;
#ARTIST:Jedward;
#TITLETRANSLIT:;
#SUBTITLETRANSLIT:;
#ARTISTTRANSLIT:;
#CREDIT:;
#BANNER:Waterline-bn.png;
#BACKGROUND:Waterline-bg.png;
#LYRICSPATH:;
#CDTITLE:;
#MUSIC:Waterline.mp3;
#OFFSET:-0.040;
#SAMPLESTART:26.650;
#SAMPLELENGTH:16.320;
#SELECTABLE:YES;
#BPMS:0.000=144.000,168.000=72.000,180.000=144.000;
#STOPS:;
#BGCHANGES:2.000=Waterline.avi=1.000=1=0=0,
99999=-nosongbg-=1.000=0=0=0 // don't automatically add -songbackground-
;

//---------------dance-single - ----------------
#NOTES:
     dance-single:
     :
     Beginner:
     3:
     0.158,0.254,0.055,0.000,0.000:
0000
0000
0000
0000
,
0000
0000
0000
0000
,
0010
0010
0000
0000
,
0010
0010
0000
0000
,
0100
0100
0000
0000
,
0100
0100
0000
0000
,
0001
0001
0000
0000
,
0001
0001
0000
0000
,
1000
1000
0000
0000
,
1000
1000
0000
0000
,
1001
0000
0000
0000
,
0100
0000
0100
0000
,
0100
0000
0000
0000
,
1000
0000
1000
0000
,
1000
0000
0000
0000
,
0010
0010
0010
0010
,
0010
0000
0010
0000
,
0010
0000
0010
0000
,
0100
0000
0100
0000
,
0100
0000
0100
0000
,
0001
0000
0001
0000
,
0001
0000
0001
0000
,
1000
0000
1000
0000
,
1000
0000
1000
0000
,
0010
0010
0010
0010
,
0010
0010
0010
0010
,
0100
0100
0100
0100
,
0100
0100
0100
0100
,
0100
0000
0000
0000
,
0001
0000
0000
0000
,
1000
0000
0000
0000
,
0000
0000
0000
0000
,
0100
0100
0000
0000
,
0000
0000
0000
0000
,
0110
0000
0000
0000
,
1000
0000
1000
0000
,
1000
0000
0000
0000
,
0001
0000
0000
0000
,
0110
0000
0000
0000
,
0001
0000
0001
0000
,
0001
0000
0000
0000
,
0010
0000
0000
0000
,
1001
0000
0000
0000
,
0100
0100
0100
0100
,
1000
1000
1000
1000
,
1001
0000
0000
0000
,
0010
0010
0010
0010
,
0010
0000
0000
0000
,
0100
0000
0100
0000
,
0100
0000
0000
0000
,
0001
0000
0000
0000
,
1000
0000
0000
0000
,
0010
0010
0000
0000
,
0110
0000
0000
0000
,
0001
0001
0001
0001
,
0001
0001
0001
0001
,
0001
0000
0000
0000
,
1000
0000
1000
0000
,
0100
0000
0100
0000
,
0010
0000
0010
0000
,
0000
0000
0000
0000
,
0100
0100
0000
0000
;

//---------------dance-single - ----------------
#NOTES:
     dance-single:
     :
     Medium:
     10:
     0.451,0.622,0.268,0.443,0.005:
0000
0000
0000
0000
,
0000
0000
0000
0000
,
0100
0002
2003
3000
,
0100
2000
3020
0030
,
0100
0000
0010
1000
0100
0000
1000
0100
,
0010
0001
1000
0001
,
0010
0200
2300
3000
,
0010
2000
3002
0003
,
0100
0000
0001
0010
0100
0000
0010
0001
,
0000
0000
0000
1000
0000
0000
0000
0000
,
0010
0000
0100
0000
0010
1000
0100
0000
,
2000
3100
0020
0130
,
0010
0000
1000
0100
0010
0000
0100
0000
,
2000
3100
0002
0103
,
0010
0100
0010
0100
0010
0100
0010
0100
,
0001
0100
0001
0100
0001
0100
0001
0000
,
1010
0001
0100
0010
,
0100
0001
1000
0100
,
0010
0000
0002
0000
0000
2003
0000
0000
,
3020
0100
1000
0130
,
0010
0000
1000
0000
0100
0010
0001
0000
,
1000
0000
0001
0000
0100
0010
1000
0000
,
0100
1000
0100
0000
1000
0000
0010
0100
,
0010
1000
0100
0010
,
0110
0001
1000
0010
,
0100
0100
0010
1000
,
0001
0000
0020
0000
0000
0032
0000
0000
,
0203
0001
0010
0310
,
0001
0000
1000
0010
0100
0000
0001
0000
,
0010
0100
1000
0000
0010
0000
1000
0000
,
1010
0000
0001
0000
0100
0000
0010
0100
,
0000
0000
0000
0000
,
0110
1001
0000
0000
,
0100
0000
0000
1000
0000
0000
0110
0000
,
0100
0010
0100
0000
0010
0000
1000
0000
,
0100
0000
1000
0100
0000
0100
1000
0000
,
0010
0100
0010
0000
1000
0000
0100
0000
,
0010
0001
0100
0010
,
1000
0100
1000
0000
0010
0000
0100
0000
,
0001
0000
0010
0001
0000
0001
0100
0000
,
0010
0100
0010
0000
1000
0000
0100
1000
,
0000
0000
0001
0100
0000
0000
0010
0100
,
0010
0010
0010
0010
1000
1000
1000
1000
,
0001
0001
0001
0001
0010
0010
0010
0010
,
0100
0000
1000
0000
0001
0000
0100
0000
0010
0000
1000
0000
0100
0010
0100
0000
,
1001
0000
2200
0000
3300
0202
0000
0303
,
2020
0000
3030
2002
0000
3003
0220
0000
,
0330
0000
0202
0000
0303
2200
0000
3300
,
0012
0010
0100
0103
,
0110
0000
0001
1000
0100
1000
0001
0000
,
1000
0000
0010
0100
0001
0100
0010
0000
,
1000
0100
0010
0001
,
0110
0110
0000
0000
,
1010
0000
2200
0000
3300
0202
0000
0303
,
0220
0000
0330
0202
0000
0303
2002
0000
,
3003
0000
2200
0000
3300
0220
0000
0330
,
2100
0100
0010
3010
,
0100
0001
0100
0001
0100
0001
0100
0001
,
1000
0001
1000
0001
1000
0001
1000
0001
,
1000
0010
1000
0010
1000
0010
1000
0100
,
0000
0000
0000
0001
,
0101
1100
0000
0000
;

//---------------dance-single - ----------------
#NOTES:
     dance-single:
     :
     Hard:
     12:
     0.532,0.792,0.443,0.240,0.046:
0000
0000
0000
0000
,
0000
0000
0000
0000
,
0010
0010
0200
0000
0302
0000
0003
0000
,
1000
0001
0100
0000
1000
0000
0000
0010
,
0100
0100
0001
0000
1000
0000
0010
0000
,
0100
0000
0001
0000
1000
0100
0001
0000
,
1000
1000
0002
0000
0023
0000
0030
0000
,
0001
1000
0100
0000
1000
0000
0000
0010
,
0100
0100
0001
0000
1000
0000
0100
0010
,
0000
0001
0100
0001
0000
0000
1010
0000
,
0110
0000
0001
1000
0100
0000
1000
0000
,
0020
0000
0130
0002
0000
0000
0013
0000
,
0011
0000
0100
1000
0001
0000
1000
0000
,
0020
0000
1030
0200
0000
1300
0001
0200
,
0010
0010
0001
0010
,
0301
0010
0100
1000
0001
1001
0000
0000
,
0101
0000
0110
0000
1000
0001
0100
0000
,
0110
0000
1000
0100
0010
0001
1000
0000
,
0010
1010
0101
1100
,
2001
0000
3010
0000
0100
0001
1000
0000
,
0100
0000
1000
1000
0010
0100
0010
0000
,
1000
0000
0001
0001
0010
0100
0010
0000
,
0001
0100
1000
0000
0100
0000
0010
1000
,
0100
0000
1000
0000
0001
0100
1000
0000
,
1100
0000
0110
0000
0001
1000
0010
0000
,
0110
0000
0001
0010
0100
1000
0001
0000
,
0100
0101
1010
0011
,
1002
0000
0103
0000
0010
1000
0001
0000
,
0010
0000
0001
0001
0100
0000
0010
0000
,
1000
1000
0100
0000
0010
0000
0001
0000
,
0100
0010
1000
0000
0001
1000
0010
0110
,
0000
0000
0000
0000
,
0001
0001
0100
0000
0000
0010
1000
0100
,
1000
0000
0001
0100
0000
0100
0110
0000
,
0001
0001
0010
0000
0000
0000
1000
0000
,
1100
0000
0000
0101
0000
0000
0000
0100
,
0010
1000
0100
0000
0000
0000
1000
0100
,
0010
0001
0100
0010
0000
0100
0001
1000
,
0100
0100
1000
0000
0000
0000
0010
0000
,
1010
0000
0000
0101
0000
0000
0000
0100
,
0001
0100
1000
0000
0000
0100
0010
0110
,
0000
0000
0000
1001
0000
0000
0110
0000
,
0001
0000
0001
0000
0001
0000
0001
0000
1000
0000
1000
0000
1000
0200
1000
0000
,
0310
0010
0010
0010
0001
0001
0001
0001
,
0100
0010
0100
0010
0100
0010
0100
0010
1000
0001
1000
0001
1000
0100
1001
0000
,
0110
0000
0102
0000
1003
2100
0000
3010
,
0120
0000
1030
2100
0000
3001
0102
0000
,
1003
0100
2100
0000
3010
0120
0000
1030
,
0001
1000
0010
0000
0100
0000
0001
0000
1000
0000
0010
0000
1000
0000
0000
0000
,
0110
0000
0001
0001
0100
0010
0100
0000
,
0001
0000
1000
1000
0100
0010
0100
0000
,
1000
0010
0001
0000
0010
0000
0100
0001
,
0010
0000
0001
0000
1000
0010
0001
0000
,
0011
0000
2010
0000
3100
2100
0000
3010
,
0120
0000
1030
2100
0000
3001
0102
0000
,
0013
0000
0120
0000
0031
0102
0000
1003
,
0100
0010
1000
0000
0010
0000
0100
0000
0001
0000
1000
0000
0001
0000
0000
0000
,
0010
0100
0010
0100
0001
0100
0001
0100
,
0010
1000
0010
1000
0100
0010
0100
0010
,
0001
0010
0001
0010
0100
1000
0001
1001
,
0000
0100
0010
1000
0100
0010
0001
0100
,
0110
0010
1001
0000
0000
0000
0000
0000
;

//---------------dance-single - ----------------
#NOTES:
     dance-single:
     :
     Easy:
     6:
     0.277,0.396,0.222,0.000,0.000: // measure 1
0000
0000
0000
0000
,  // measure 2
0000
0000
0000
0000
,  // measure 3
0010
0100
0100
0000
,  // measure 4
0001
1000
1000
0000
,  // measure 5
0100
1000
0010
0100
,  // measure 6
0001
0010
0100
0100
,  // measure 7
0010
0001
0001
0000
,  // measure 8
0100
0001
0001
0000
,  // measure 9
0100
0001
1000
0010
,  // measure 10
1000
0100
1000
1000
,  // measure 11
0110
0000
1000
0001
,  // measure 12
0100
0001
1000
0000
,  // measure 13
1100
0000
1000
0100
,  // measure 14
0010
0001
0100
0000
,  // measure 15
0010
0100
0010
0100
,  // measure 16
0001
1000
0001
0000
,  // measure 17
1000
0000
0100
0000
0000
1000
0000
0000
,  // measure 18
0010
0000
0000
1000
0000
0000
0001
0000
,  // measure 19
0000
0000
0010
0000
0000
0001
0000
0000
,  // measure 20
1000
0000
0010
0110
,  // measure 21
1000
0100
0010
0001
,  // measure 22
0100
0010
0100
0001
,  // measure 23
1000
0010
0100
0010
,  // measure 24
1000
0100
0010
0000
,  // measure 25
0001
0000
1000
0000
0000
0010
0000
0000
,  // measure 26
1000
0000
0000
0100
0000
0000
0010
0000
,  // measure 27
0000
0000
0001
0000
0000
1000
0000
0000
,  // measure 28
0010
0000
0100
1001
,  // measure 29
0100
1000
0010
0100
,  // measure 30
0010
1000
0001
1000
,  // measure 31
0010
0000
0100
0000
0001
0000
0100
0100
,  // measure 32
0000
0000
0000
0000
,  // measure 33
0010
0010
0000
0000
,  // measure 34
0100
0100
0000
0000
,  // measure 35
0001
0100
0000
0000
,  // measure 36
0010
1000
0100
0000
,  // measure 37
1000
0100
0000
0000
,  // measure 38
1000
0010
0100
0000
,  // measure 39
0010
0100
0000
0000
,  // measure 40
0001
1000
0100
0000
,  // measure 41
1000
0000
0100
0000
0000
0000
0000
0011
,  // measure 42
0000
0000
0000
1100
0000
0000
0000
0000
,  // measure 43
0010
1000
0100
0010
,  // measure 44
0001
0001
1000
1000
0010
0010
0100
0100
,  // measure 45
0010
1000
0100
0010
0001
0100
0010
0000
,  // measure 46
0100
0000
0110
0000
0000
0110
0000
0000
,  // measure 47
0110
0000
0000
0110
0000
0000
0110
0000
,  // measure 48
0000
0000
1001
0000
0000
1001
0000
0000
,  // measure 49
1001
0000
0000
0000
,  // measure 50
0100
1000
0010
0010
,  // measure 51
1000
0001
0100
0100
,  // measure 52
0001
1000
0100
0010
,  // measure 53
0001
1000
0000
0000
,  // measure 54
0001
0000
0101
0000
0000
0101
0000
0000
,  // measure 55
0101
0000
0000
0101
0000
0000
0101
0000
,  // measure 56
0000
0000
1100
0000
0000
1100
0000
0000
,  // measure 57
1100
0000
0000
0000
,  // measure 58
1000
0010
0100
0001
,  // measure 59
1000
0001
0010
0100
,  // measure 60
1000
0000
0010
0000
0100
0000
0001
1000
,  // measure 61
0000
0000
0000
0000
,  // measure 62
1001
1001
0000
0000
;
