#TITLE:TiK ToK;
#SUBTITLE:;
#ARTIST:Ke$ha;
#TITLETRANSLIT:;
#SUBTITLETRANSLIT:;
#ARTISTTRANSLIT:;
#CREDIT:;
#BANNER:TiK ToK-bn.png;
#BACKGROUND:TiK ToK-bg.png;
#LYRICSPATH:;
#CDTITLE:;
#MUSIC:TiK ToK.mp3;
#OFFSET:-0.240;
#SAMPLESTART:47.660;
#SAMPLELENGTH:15.400;
#SELECTABLE:YES;
#BPMS:0.000=120.000,58.000=60.000,61.000=120.000;
#STOPS:186.500=0.980
;
#BGCHANGES:-0.700=TiK ToK.avi=1.000=1=0=0,
99999=-nosongbg-=1.000=0=0=0 // don't automatically add -songbackground-
;

//---------------dance-single - ----------------
#NOTES:
     dance-single:
     :
     Beginner:
     1:
     0.074,0.095,0.017,0.000,0.000:
0000
0000
0000
0000
,
0000
0000
0000
0000
,
0000
0000
0000
0000
,
0000
0000
0000
0000
,
0000
0000
0000
0000
,
0000
0000
0000
0000
,
0000
0000
0000
0000
,
0000
0000
0000
0000
,
1000
0000
0000
0000
,
0010
0000
0000
0000
,
0100
0000
0000
0000
,
0001
0000
0000
0000
,
0010
0000
0000
0000
,
0100
0000
0000
0000
,
1000
0000
0000
0000
,
0000
0010
0000
0000
,
0000
1000
0000
1000
,
0000
1000
0000
0000
,
0000
0001
0000
0001
,
0000
0001
0000
0000
,
0000
0010
0000
0010
,
0000
0010
0000
0000
,
0000
0001
0000
0000
,
0000
1001
0000
0000
,
0000
1000
0000
0000
,
0100
0100
0000
0000
,
0000
1000
0000
0000
,
0010
0010
0000
0000
,
0000
0100
0000
0100
,
0000
0100
0000
0000
,
0000
0001
0000
0000
,
0000
0010
0000
0000
,
0000
0100
0000
0100
,
0000
0000
0000
0000
,
0000
1000
0000
1000
,
0000
0000
0000
0000
,
0000
0010
0000
0010
,
0000
0000
0000
0000
,
1000
0000
0000
0000
,
0000
0001
0001
0000
,
0000
0001
0001
0000
,
0000
1000
1000
0000
,
0000
1000
1000
0000
,
0000
0001
0000
0000
,
0000
0100
0000
0000
,
0000
0010
0000
0000
,
0000
0010
0000
0000
,
0000
0000
0000
0000
,
0000
0000
0100
0100
,
0000
0000
0000
0000
,
0000
0000
1000
1000
,
0000
0000
0000
0000
,
0000
0000
0000
0010
,
0000
0010
0000
0010
,
0000
0010
0000
1001
;

//---------------dance-single - ----------------
#NOTES:
     dance-single:
     :
     Medium:
     5:
     0.267,0.310,0.217,0.052,0.000:
0000
0000
0000
0000
,
0000
0000
0000
0000
,
0000
0000
0000
0000
,
0000
0000
0000
0000
,
0000
0000
0000
0000
,
0000
0000
0000
0000
,
0000
0000
0000
0000
,
0000
0000
0000
0000
,
0010
0000
1000
0100
0100
0000
0100
0000
,
1000
0000
0001
0100
0100
0000
0100
0000
,
0001
0000
1000
0010
0010
0000
0010
0000
,
1000
0001
0000
0000
,
1000
0000
0001
0100
0100
0000
0100
0000
,
0001
0000
1000
0100
0100
0000
0100
0000
,
1000
0010
0220
0030
,
0000
0301
0001
1000
,
0010
0000
1000
0000
0100
0100
0100
0000
,
1000
0100
1000
0010
,
0100
0001
0010
0001
,
0100
0100
0010
1000
,
0001
0000
1000
1000
1000
0000
0001
0001
,
0001
0010
0100
1000
,
0000
0010
0100
0001
,
0000
1001
0100
1000
,
0001
0100
0010
0000
1000
0100
0010
0000
,
0001
1000
0010
0100
,
0001
0000
0010
0100
0010
0000
0110
0000
,
0000
1001
0010
0100
,
0001
1000
0100
1000
0001
0000
0100
0000
,
0010
1000
0100
1100
,
0000
0001
0100
0101
,
0000
0010
1000
0001
,
0100
0010
0010
0100
,
0010
1000
0100
0000
1000
0000
0001
0000
,
0010
0001
0001
1000
,
0010
0100
0001
0000
0100
0000
0010
0000
,
1000
0000
0100
1000
0010
0000
0100
0000
,
0001
0000
0010
0000
0100
0000
1000
0010
,
0100
0000
0000
0000
,
0000
1001
1001
1001
,
0000
0110
0110
0110
,
0000
0000
0001
0100
1000
0000
0001
0000
,
0000
0100
0010
1000
,
0000
1100
1100
1100
,
0000
0101
0101
0101
,
0000
0000
0020
0030
0000
0000
0000
0000
,
0000
0000
2000
3000
0000
0000
0110
0000
,
0001
0100
1000
0010
,
0001
1000
1001
1001
,
0100
0000
1000
0000
0010
1000
0100
0000
,
1000
0001
0100
0000
0101
0000
1001
0000
,
0010
0000
1000
0000
0001
0000
0010
0100
,
1000
0010
1000
0100
,
0100
0100
0000
1000
,
0010
0001
0110
2002
,
3003
0000
0000
0000
;

//---------------dance-single - ----------------
#NOTES:
     dance-single:
     :
     Hard:
     7:
     0.313,0.357,0.173,0.035,0.004:
0000
0000
0000
0000
,
0000
0000
0000
0000
,
0000
0000
0000
0000
,
0000
0000
0000
0000
,
0000
0000
0000
0000
,
0000
0000
0000
0000
,
0000
0000
0000
0000
,
0000
0000
0000
0000
,
0100
0000
0001
0100
1000
0000
1000
0000
,
0010
0000
1000
0100
0001
0000
0001
0000
,
1000
0000
0001
0010
0100
0000
0100
0000
,
0000
0000
0010
0001
0000
0100
0010
0100
,
0001
0000
1000
0001
0100
0000
0100
0000
,
0001
0000
1000
0100
0010
0000
0010
0000
,
0001
0100
0010
1000
0200
0000
0020
0000
,
0300
0001
0031
0000
0100
0010
0100
0000
,
0001
0000
1000
0000
0100
1000
0100
0000
,
1100
0000
1100
0000
0010
1000
0010
0000
,
0100
0000
0001
0000
1000
0001
1000
0000
,
1001
0000
1001
0000
0010
0100
0010
0000
,
1000
0000
0001
0000
0100
0010
0100
0001
,
1000
0100
0000
1000
,
1100
0010
0000
0100
,
0101
0000
1000
0000
0001
1000
0100
0000
,
1000
0000
0010
0000
0100
0010
1000
0000
,
1100
0000
0101
0000
0010
0100
0010
0000
,
1000
0001
1000
0001
0100
0000
0010
0000
,
1100
0000
0011
0000
1000
0010
1000
0000
,
0010
0100
0010
0100
0001
0000
1000
0100
,
1000
0010
0000
1000
,
0101
0010
0000
0100
,
0001
1000
0001
0000
1000
0000
0100
0000
,
1000
0000
0010
0000
0100
0010
0000
0100
,
0010
1000
0001
0010
,
0100
0000
1000
0000
0001
0100
0000
0001
,
0100
0010
1000
0001
,
1000
0000
0100
0000
0010
0100
0000
0010
,
0100
1000
0010
0100
,
0001
0000
1000
0001
0100
0010
1000
0100
,
1000
0100
0010
0000
0001
0100
1000
0000
,
1001
0000
0010
0000
1000
0010
0001
0000
,
1001
0000
0001
0000
1000
0100
0001
0000
,
1001
0100
0100
0100
,
1000
0000
0001
0000
1000
0010
0001
0000
,
1001
0000
0100
0000
0001
0100
1000
0000
,
0010
0000
0000
0000
0100
0001
0000
0000
0000
0000
0000
0000
0000
0000
0000
0000
,
0000
0000
0010
0010
0100
0100
0001
0000
,
0100
0010
1000
0000
0100
0000
1000
0000
,
0010
0100
0010
0000
0110
0000
1001
0000
,
0100
1000
0100
0000
1000
0100
0001
0100
,
1000
0100
1010
0101
,
1000
0001
1000
0000
0100
0000
0010
0000
,
0001
0100
0001
0000
0010
0000
0100
0000
,
0100
0010
0001
0000
0000
0000
0100
0000
,
0100
0010
1000
0000
0100
0000
2002
0000
,
3003
0000
0000
0000
;

//---------------dance-single - ----------------
#NOTES:
     dance-single:
     :
     Easy:
     2:
     0.140,0.167,0.035,0.069,0.000:
0000
0000
0000
0000
,
0000
0000
0000
0000
,
0000
0000
0000
0000
,
0000
0000
0000
0000
,
0000
0000
0000
0000
,
0000
0000
0000
0000
,
0000
0000
0000
0000
,
0000
0000
0000
0000
,
0010
0010
0000
0000
,
1000
1000
0000
0000
,
0001
0001
0000
0000
,
0100
0100
0000
0000
,
0001
0001
0000
0000
,
1000
1000
0000
0000
,
0010
0010
0000
0000
,
0000
1001
0000
0100
,
0000
1000
0100
0010
,
0000
1000
0000
0001
,
0000
0100
0001
0010
,
0000
0001
0000
1000
,
0000
0010
1000
0100
,
0000
2000
0000
3000
,
0000
0002
0000
0003
,
0000
0010
0100
0010
,
0000
0001
0000
0100
,
0001
1000
0000
0010
,
0000
1000
1000
1000
,
0100
0100
0000
1000
,
0000
0010
0100
0001
,
0000
0020
0000
0030
,
0000
0200
0000
0300
,
0000
1000
1000
1000
,
0000
1000
1000
1000
,
0000
0001
0001
0001
,
0000
0001
0001
0001
,
0000
0010
0010
0010
,
0000
0010
0010
0010
,
0000
0100
0100
0100
,
0100
0000
0000
0000
,
0000
0110
0000
0000
,
1000
0000
0000
0000
,
0001
0000
0000
0000
,
0010
0000
0000
0000
,
0000
0100
0100
0000
,
0100
1000
1000
0000
,
1000
0010
0000
0000
,
0000
0110
0000
0000
,
0100
0000
0010
0000
,
1000
0000
0100
0100
,
0100
0000
1000
0000
,
0001
0000
0010
0010
,
0010
0000
0001
0000
,
1000
0000
0010
0200
,
0000
0300
0000
0002
,
0000
0003
0000
2002
,
3003
0000
0000
0000
;

//---------------dance-single - ----------------
#NOTES:
     dance-single:
     :
     Challenge:
     11:
     0.473,0.548,0.217,0.104,0.199: // measure 1
0000
0000
0000
0000
,  // measure 2
0000
0000
0000
0000
,  // measure 3
0000
0000
0000
0000
,  // measure 4
0000
0000
0000
0000
,  // measure 5
0000
0000
0000
0000
,  // measure 6
0000
0000
0000
0000
,  // measure 7
0000
0000
0000
0000
,  // measure 8
0000
0000
0000
0000
,  // measure 9
0010
1000
0010
0000
0100
0000
0001
0000
1001
0000
0000
0000
1100
0000
0000
0000
,  // measure 10
0100
1000
0100
0000
1000
0000
0010
0000
1010
0000
0000
0000
0101
0000
0000
0000
,  // measure 11
0010
0000
0100
0010
0100
0000
0001
0000
0101
0000
0000
0000
1100
0000
0000
0000
,  // measure 12
0001
0000
0000
1000
0000
0000
0100
0000
0000
0000
1000
0000
0010
0000
0100
0000
,  // measure 13
0001
0100
0001
0000
1000
0000
0010
0000
1010
0000
0000
0000
1001
0000
0000
0000
,  // measure 14
0010
0100
0010
0000
0001
0000
0100
0000
0101
0000
0000
0000
1100
0000
0000
0000
,  // measure 15
0001
0100
0001
0100
0001
1000
0010
0000
0200
0000
0000
0000
0002
0000
0000
0000
,  // measure 16
0300
1000
1003
0000
0010
1000
0001
0000
,  // measure 17
0100
0001
1000
0100
0010
0001
1000
0010
,  // measure 18
0200
0000
0310
0000
1000
0001
0100
0000
,  // measure 19
0010
0100
0001
1000
0100
1000
0001
0000
,  // measure 20
2001
0000
3010
0000
0100
0010
1000
0000
,  // measure 21
0001
0010
1000
0010
0001
1000
0100
1000
,  // measure 22
0010
0000
0000
0000
0100
0000
0000
0001
0000
0000
1000
0000
0100
0000
0000
0000
,  // measure 23
1001
0000
0000
0000
0010
0000
0000
0100
0000
0000
0001
0000
1000
0000
0000
0000
,  // measure 24
0110
0000
0000
0000
0001
0100
0001
0000
1000
0000
0100
0000
1000
0000
0000
0000
,  // measure 25
0010
0100
0010
0000
1000
0000
0100
0000
1000
0000
0001
0000
1000
0000
0100
0000
,  // measure 26
1100
0000
0000
0000
0101
0000
0000
0000
0010
0100
0010
0000
1000
0000
0000
0000
,  // measure 27
0001
0000
1000
0100
1000
0000
0010
0000
0100
0000
0001
0000
0010
0000
0100
0000
,  // measure 28
0110
0000
0000
0000
0011
0000
0000
0000
1000
0001
1000
0000
0010
0000
0000
0000
,  // measure 29
0100
0000
0010
1000
0010
0000
0100
0000
0001
0000
0010
0000
0100
0000
1000
0000
,  // measure 30
0001
0000
0000
0000
1000
0000
1000
0100
0000
0100
0010
0000
0001
0000
0000
0000
,  // measure 31
0000
0000
0000
0000
0001
0000
0001
0100
0000
0100
0010
0000
1000
0000
0000
0000
,  // measure 32
0000
0000
1100
0000
0001
0100
1000
0000
,  // measure 33
0010
1000
0001
0100
0010
0100
0000
0001
,  // measure 34
0010
0100
1000
1000
0010
0100
0001
0001
,  // measure 35
1000
0010
0100
0001
0010
0100
0000
0010
,  // measure 36
0001
0100
0010
1000
0100
0010
0001
0000
,  // measure 37
0100
0010
0100
0001
1000
0100
0100
0000
,  // measure 38
0010
0001
0100
1000
0010
0001
0100
0010
,  // measure 39
1000
0100
0001
0100
1000
0010
0100
0001
,  // measure 40
1000
0100
0010
0000
0001
0100
0001
0100
0010
0000
0100
0000
0001
0000
0000
0000
,  // measure 41
1000
0000
0000
0000
0010
0000
1000
0100
1000
0000
0010
0000
0100
0000
0000
0000
,  // measure 42
0100
0000
0001
1000
0001
1000
0100
1000
0001
1000
0010
0000
0100
0000
0000
0000
,  // measure 43
0010
0000
1000
0000
0001
0000
0000
0010
0000
0000
1000
0000
0000
0000
0100
0000
,  // measure 44
1000
0000
0010
0000
0100
0001
0100
0010
0100
0000
0001
0000
1000
0000
0000
0000
,  // measure 45
1000
0000
0010
1000
0010
0000
0100
0000
0001
0000
1000
0000
0010
0000
0000
0000
,  // measure 46
0100
0000
0010
0000
1000
0100
0000
0000
1000
0000
0100
0000
0011
0000
0000
0000
,  // measure 47
1100
0000
0000
0000
1001
0000
0110
0000
0001
0000
0100
0000
1000
0100
0002
0000
,  // measure 48
0100
0000
0103
0000
1000
0100
0002
0000
0100
0000
0103
0000
1000
0000
0010
0000
,  // measure 49
0100
0000
0001
0000
1000
0000
0100
0000
0110
0000
0000
0000
0001
0010
2000
0000
,  // measure 50
0010
0000
3010
0000
0001
0010
2000
0000
0010
0000
3010
0000
0001
0000
0100
0000
,  // measure 51
0010
0000
1000
0000
0100
0000
0010
0000
0110
0000
0000
0000
1000
0100
0010
0000
,  // measure 52
0001
0000
0100
0000
0010
1000
0001
0000
0100
0000
0010
0000
1000
0100
0010
0000
,  // measure 53
0001
0000
1000
0000
0010
0100
0001
0000
1000
0000
0001
0000
0010
0000
0010
0100
,  // measure 54
0000
0100
1000
0000
0020
0000
0000
0000
0130
0000
0000
0000
0001
0000
0001
1000
,  // measure 55
0000
1000
0100
0000
0020
0000
0000
0000
0130
0000
0000
0000
2002
0000
0000
0000
,  // measure 56
3003
0000
0000
0000
;
