#TITLE:This Woman's Work (Echoes Mix);
#ARTIST:Kate Bush;
#FILE:This Womans Work (Echoes Mix).mp3;
#BPM:121.030;
#GAP:40;
#SAMPLESTART:69.460;
#SAMPLELENGTH:15.400;
#CHANGEBPM:552.000=122.830,560.000=121.030;
#SINGLE:BEGINNER:1:
00000000
00000000
00000000
00000000
80000000
20000000
60000000
40000000
20000000
40000000
80000000
40000000
60000000
80000000
20000000
40000000
80000000
20000000
60000000
40000000
80000000
40000000
20000000
80000000
60000000
40000000
80008000
80000000
20000000
60000000
40000000
20000000
40000000
60000000
80808000
80000000
60000000
40000000
80000000
20000000
60000000
40000000
20002000
20000000
40000000
60000000
80008000
80000000
60000000
40000000
20002000
20000000
40000000
A0000000
;
#SINGLE:ANOTHER:4:
00000000
00000000
00000000
00000000
00000284
60000000
00000424
80000000
00000062
80000000
00000828
40000000
00000020
60000000
40802000
00006000
40208000
04204000
06206000
00002008
80406000
00402060
20400000
80004008
20000060
40000000
60000000
40206020
40802220
00008040
66606000
00806020
40804440
00002086
60806000
A0602040
80804020
8!80000000
A!20000000
10802060
80806040
6!60000000
B!40000000
70402080
60408280
20608020
40604240
80406080
20806260
80604080
20804240
80208040
60828280
6!60000000
4!40000000
00000000
00000000
B0000000
;
#SINGLE:MANIAC:7:
00000000
00000000
00000000
00000000
80602842
4!40002020
10408482
6!60203000
80406042
40808080
80208262
8!80407000
402040B0
A!A000A06!60
30428!8080
60802420
4!40801000
84626!6030
08286!60B0
00804!4010
8!80A46!6000
602!20A424
6!60B!400040
8!8000A046
8!80A00048
2!20808080
3!604040B0
B0042624
82802820
00062426
82404000
00042624
82608280
00068486
4620B000
24246464
8!80A!203202
80208040
B!B000B000
84846262
8!807!401!20A!80
9040A030
4!40002080
14246464
8!80A!203!609!80
A8286464
8!80A!203!6060
42428686
2!20A!807!40B0
46462828
4!40B!609!80A0
86864242
8!809!603!2020
B!B0000060
2!20000020
80202060
1!20000000
8!80000000
0000A000
;
#SINGLE:BASIC:2:
00000000
00000000
00000000
00000000
80000080
80000000
40000040
40000000
20000020
20000000
80000080
80000000
60000000
40000000
80002000
00006000
60006000
00404000
00808000
00004000
20008000
00006000
60000000
40000000
20000000
40004000
60000000
B0002000
40008000
40006000
80008000
60004000
80004000
20004000
20202000
B0008000
40404000
20008000
60000000
40006000
80808000
20004000
B0000000
80008000
40004000
60006000
20002000
60004000
20008000
60004000
80002000
B000B000
2000A000
B0000000
;
