#TITLE:The Edge Of Glory;
#SUBTITLE:;
#ARTIST:Lady Gaga;
#TITLETRANSLIT:;
#SUBTITLETRANSLIT:;
#ARTISTTRANSLIT:;
#CREDIT:;
#BANNER:The Edge Of Glory-bn.png;
#BACKGROUND:The Edge Of Glory-bg.png;
#LYRICSPATH:;
#CDTITLE:;
#MUSIC:The Edge Of Glory.mp3;
#OFFSET:-0.090;
#SAMPLESTART:51.480;
#SAMPLELENGTH:16.360;
#SELECTABLE:YES;
#BPMS:0.000=128.000;
#STOPS:109.000=-0.010
;
#BGCHANGES:-0.400=The Edge of Glory.avi=1.000=1=0=0,
99999=-nosongbg-=1.000=0=0=0 // don't automatically add -songbackground-
;

//---------------dance-single - ----------------
#NOTES:
     dance-single:
     :
     Beginner:
     1:
     0.089,0.146,0.024,0.000,0.000:
0000
0000
0000
0000
,
0000
0000
0000
0000
,
0000
0000
0000
0000
,
0000
0000
0000
0000
,
0010
0000
0000
0000
,
0010
0000
0000
0000
,
0100
0000
0000
0000
,
0100
0000
0000
0000
,
0001
0000
0000
0000
,
0001
0000
0000
0000
,
1000
0000
0000
0000
,
1000
0000
0000
0000
,
0010
0000
0010
0000
,
0010
0000
0000
0000
,
0100
0000
0100
0000
,
0100
0000
0000
0000
,
0001
0000
0001
0000
,
0001
0000
0000
0000
,
0100
0000
0100
0000
,
0100
0000
0000
0000
,
1001
0000
0000
0000
,
0100
0000
0000
0000
,
1000
0000
0000
0000
,
0010
0010
0010
0010
,
0010
0000
0000
0000
,
1000
0000
0000
0000
,
0001
0000
0000
0000
,
1001
0000
0000
0000
,
0100
0100
0000
0000
,
0100
0000
0000
0000
,
0001
0000
0000
0000
,
1000
0000
0000
0000
,
0010
0010
0000
0000
,
0010
0000
0000
0000
,
0100
0000
0000
0000
,
0001
0000
0000
0000
,
1000
1000
0000
0000
,
0001
0001
0000
0000
,
0100
0100
0000
0000
,
0010
0010
0000
0000
,
0100
0000
0000
0000
,
0001
0000
0000
0000
,
1000
0000
0000
0000
,
0100
0000
0000
0000
,
1000
0000
1000
0000
,
1000
0000
1000
0000
,
1000
0000
0000
0000
,
0000
0000
0000
0000
,
0010
0000
0010
0000
,
0010
0000
0010
0000
,
0010
0000
0000
0000
,
0000
0000
0000
0000
,
0100
0000
0100
0000
,
0100
0000
0100
0000
,
0100
0000
0000
0000
,
0000
0000
0000
0000
,
0001
0000
0001
0000
,
0001
0000
0001
0000
,
0001
0000
0000
0000
,
0000
0000
0000
0000
,
0110
0000
0000
0000
;

//---------------dance-single - ----------------
#NOTES:
     dance-single:
     :
     Medium:
     6:
     0.328,0.368,0.267,0.219,0.000:
0000
0000
0000
0000
,
0000
0000
0000
0000
,
0000
0000
0000
0000
,
0000
0000
0000
0000
,
0010
0100
0001
1000
,
1000
0001
0001
0000
,
2000
0000
3100
0000
,
0002
0000
0103
0000
,
0010
1000
0001
1000
,
1000
0100
0100
0000
,
1000
0000
1000
0000
,
1000
0000
1000
0000
,
1001
0001
0100
0010
,
0010
1000
0001
1000
,
0200
1000
1300
0010
,
0200
0001
0301
0100
,
0101
0010
0100
0001
,
1000
0100
0010
0001
,
2000
3100
0020
0130
,
0002
1003
0100
1000
,
0010
0100
0001
0000
1000
0000
0001
0000
,
0010
0100
1000
0000
0010
0000
1000
0000
,
0010
1000
0100
0000
1000
0000
0001
0000
,
0010
0001
0100
0000
0010
0000
0100
0000
,
0002
0000
0100
0000
0103
0000
0010
0100
,
0020
0100
0130
0001
,
1000
1100
0010
0110
,
0001
1000
0002
0000
0000
0000
0100
0003
,
0110
0001
0100
1000
,
0010
1000
0100
0001
,
0010
0010
0001
0000
0100
0000
0010
0000
,
1000
1000
0100
0000
1000
0000
0001
0000
,
0110
1000
0010
0001
,
0100
0001
0010
1000
,
0100
0100
1000
0000
0010
0000
0100
0000
,
0001
0001
0010
0000
0001
0000
1000
0000
,
0120
0100
0230
0001
,
0302
1000
2003
0100
,
3200
0010
0320
0001
,
0032
0000
0003
0000
,
0110
1000
0001
0010
,
0100
1000
0010
0100
,
0010
0010
1000
0000
0001
0000
0010
0000
,
0100
0100
0010
0000
0001
0000
1000
0000
,
1100
1100
0010
0100
,
0110
0110
0010
1000
,
1001
1001
0010
0001
,
0011
0011
1000
0001
,
0210
0310
0010
1000
,
2001
3001
0010
0100
,
0102
0103
0010
1000
,
2100
3100
0010
1000
,
0102
1003
0010
0100
,
2010
3001
0100
0010
,
0210
0301
0100
0010
,
2001
0000
3100
0000
0010
1000
0001
0000
,
0101
1100
0001
1000
,
1001
0101
0010
1000
,
1010
1100
0001
0100
,
0101
1100
0001
1000
,
0220
0000
0000
0000
0000
0330
0000
0000
;

//---------------dance-single - ----------------
#NOTES:
     dance-single:
     :
     Hard:
     10:
     0.432,0.419,0.162,0.235,0.000: // measure 1
0000
0000
0000
0000
,  // measure 2
0000
0000
0000
0000
,  // measure 3
2002
0000
0000
0000
,  // measure 4
0000
0000
0000
3003
,  // measure 5
0100
0000
0001
1000
0100
0000
1000
0000
,  // measure 6
0010
1000
0001
1000
0010
0000
0100
0002
,  // measure 7
0000
0000
0100
0000
1003
0000
0001
2000
,  // measure 8
0000
0100
3001
0000
,  // measure 9
0010
0000
1000
0100
0001
0000
1000
0000
,  // measure 10
0010
0000
0100
0001
0010
0000
0100
0010
,  // measure 11
0100
0000
1000
0000
,  // measure 12
0010
0000
0001
0000
,  // measure 13
0101
0000
0001
0100
1000
0000
0100
0000
,  // measure 14
0010
0100
0010
1000
0001
0000
1000
0200
,  // measure 15
0010
0000
0001
0000
0310
0000
0001
0200
,  // measure 16
0010
1000
0310
0100
,  // measure 17
0001
1000
0100
1000
0001
0000
0010
0001
,  // measure 18
1000
0100
1000
0010
0100
0000
0010
0100
,  // measure 19
0001
0100
1000
0010
,  // measure 20
0001
0000
0100
0000
2000
0000
3010
1000
,  // measure 21
0001
0100
0101
0000
1000
0100
1100
0000
,  // measure 22
0010
1000
0001
1000
0100
1000
0001
0000
,  // measure 23
0100
0010
0110
0000
0001
0100
0101
0000
,  // measure 24
0010
1000
0001
1000
0100
0010
0001
0000
,  // measure 25
2000
0000
0100
0000
3100
0000
1000
0001
,  // measure 26
0200
0000
0010
0000
0310
0000
0010
0100
,  // measure 27
0002
2003
3200
0010
,  // measure 28
0310
0001
0202
0000
0300
0000
1003
0000
,  // measure 29
1100
0000
0101
0000
0010
0100
0001
0000
,  // measure 30
0010
0001
0100
1000
0100
0010
1000
0000
,  // measure 31
0010
1000
0100
1000
0001
0010
0100
1000
,  // measure 32
0002
0000
0103
0000
1000
0100
0010
0001
,  // measure 33
0011
0000
1010
0000
0100
0010
1000
0000
,  // measure 34
0100
1000
0010
0001
0010
0100
0001
0000
,  // measure 35
0100
0001
0010
0001
1000
0100
0010
0001
,  // measure 36
2000
0000
3010
0000
0001
0010
0100
1000
,  // measure 37
0000
0010
1000
0100
0000
1000
0100
0001
,  // measure 38
0000
0100
0010
1000
0000
0001
0100
1000
,  // measure 39
0000
0010
0100
0001
0000
0010
0100
2002
,  // measure 40
0000
0000
3003
0000
0001
0100
1000
0100
,  // measure 41
0110
0000
0101
0000
0001
0100
1000
0000
,  // measure 42
0010
1000
0100
1000
0001
0010
0100
0000
,  // measure 43
0010
0010
0001
0001
0100
0010
1000
0001
,  // measure 44
1000
0100
0010
0001
0000
0100
0010
2000
,  // measure 45
0000
3010
1000
0002
0000
0103
0010
0200
,  // measure 46
0000
0301
0010
0200
0000
0310
0001
2000
,  // measure 47
0000
3010
1000
0001
0100
0010
0100
0000
,  // measure 48
0001
0100
1000
0100
0000
0010
1000
0200
,  // measure 49
0000
1300
0001
0020
0000
0031
1000
0020
,  // measure 50
0000
1030
0001
0200
0000
0301
1000
0002
,  // measure 51
0000
0103
0010
0100
0001
1000
0100
0000
,  // measure 52
0010
0001
0100
0010
0100
0001
1000
0000
,  // measure 53
0010
0000
0101
0000
1000
0001
0100
0000
,  // measure 54
0010
0000
1001
0000
1000
0100
0010
0000
,  // measure 55
0001
0000
1100
0000
1000
0010
0100
0000
,  // measure 56
0001
0100
1000
0100
0010
1000
0001
0010
,  // measure 57
0100
0000
0110
0000
0001
0010
1000
0000
,  // measure 58
0001
0000
1100
0000
1000
0100
0001
0000
,  // measure 59
0100
0000
0110
0000
1000
0010
0001
0010
,  // measure 60
1000
0100
1000
0001
0100
0010
1000
0001
,  // measure 61
0200
0010
0000
0010
0000
0010
0000
0310
;

//---------------dance-single - ----------------
#NOTES:
     dance-single:
     :
     Easy:
     3:
     0.184,0.219,0.089,0.065,0.000:
0000
0000
0000
0000
,
0000
0000
0000
0000
,
0000
0000
0000
0000
,
0000
0000
0000
0000
,
0010
0000
0100
0000
,
0001
0000
1000
0000
,
0100
1000
0100
0000
,
1000
0001
1000
0000
,
0010
0000
1000
0000
,
0100
0000
0010
0000
,
0001
0100
0001
0000
,
1000
0001
1000
0000
,
1001
0000
0100
0000
,
0010
0010
0100
0000
,
0001
0000
0010
0000
,
0100
1000
0100
1000
,
0100
0000
1000
0000
,
0010
0010
0100
0000
,
0001
0000
1000
0000
,
0010
0100
0010
0100
,
0110
0000
0001
0000
,
1000
0000
0100
1000
,
0010
0000
1000
0000
,
0001
0000
0100
0001
,
0010
0010
0001
0000
,
1000
1000
0100
0000
,
1000
0000
0001
0000
,
0100
0010
0000
0000
,
0110
0000
0110
0000
,
1000
0000
0001
0000
,
1001
0000
1001
0000
,
0100
0000
1000
0000
,
0010
0100
0010
0100
,
0001
0100
0001
0000
,
1000
0100
1000
0100
,
1000
0010
1000
0000
,
0020
0030
2000
3000
,
0200
0300
2000
3000
,
0002
0003
0020
0030
,
2002
3003
0000
0000
,
0010
0000
1000
0000
,
0001
0000
1000
0000
,
0100
0100
0010
0010
,
0100
0000
0000
0000
,
1001
0000
0100
0000
,
0001
0000
0100
0000
,
1000
0000
0100
0000
,
0001
0000
0100
0000
,
1001
0000
0010
0000
,
1000
0000
0010
0000
,
0001
0000
0010
0000
,
1000
0000
0010
0000
,
1001
0000
1000
0100
,
1000
0000
0010
0100
,
0010
0000
0100
0001
,
0100
0000
0010
0000
,
1001
0000
0100
0001
,
0100
0000
0010
0100
,
0010
0000
1000
0010
,
1000
0000
0001
1000
,
0100
0000
0000
0000
;
