#TITLE:Say Hey! (I Love You);
#ARTIST:Michael Franti & Spearhead;
#FILE:Say Hey! (I Love You).mp3;
#BPM:186.000;
#GAP:50;
#SAMPLESTART:15.520;
#SAMPLELENGTH:16.340;
#SINGLE:BEGINNER:1:
00000000
00000000
00000000
00000000
80000000
80000000
80000000
80000000
20000000
20000000
20000000
00000000
B0000000
20000000
B0000000
80000000
40004000
40004000
80008000
80008000
80000000
40000000
60000000
00000000
40000000
60000000
20000000
00000000
80000000
80000000
40000000
40000000
20000000
20000000
80000000
80000000
60000000
60000000
40000000
40000000
80000000
80000000
B0000000
00000000
A0000000
40000000
A0000000
60000000
20002000
20000000
60006000
60000000
40000000
80000000
40000000
00000000
20000000
80000000
60000000
00000000
20002000
80000000
40004000
60000000
60006000
80000000
20002000
40000000
80008000
20000000
60006000
40000000
40004000
20000000
80008000
80008000
80008000
80008000
80000000
00000000
A0000000
;
#SINGLE:ANOTHER:5:
00000000
00000000
00000000
00000000
40020000
40020000
80060000
80060000
28280000
20080000
46460000
40060000
7!70000800
20010000
60406020
80080000
20008000
40002000
40208068
02040000
7!70007000
8!80008000
B!B000B000
20000000
3!30003000
1!10001000
B!B000B000
80000000
40040000
80080000
20020000
60060000
80020000
40020000
60020000
80040000
20402000
40240000
60206000
20620000
80402000
40208000
60820080
60280000
B!B0006000
20010000
40802060
20804000
60802042
08060000
40802062
08040000
A!A000A000
4!40004000
3!30003000
80000000
7!70007000
A!A000A000
B!B000B000
20000000
40204020
80608000
B000B000
00202000
80408040
60206000
70007000
00202000
80402080
60406000
70003000
00808000
40802060
80204000
1000A000
9000B000
7000A000
B0001000
90000000
20804000
B!B00000B0
;
#SINGLE:MANIAC:9:
00000000
00000000
00000000
00000000
80260620
80420240
60840480
60420240
82820040
20420040
62620080
20640000
A!2060A042
40620000
7!4020B042
40626000
40802068
04080000
90B01080
70B03000
A!A000A000
3!30003000
1!10001000
20408000
70700000
B0B00000
A0A00000
60204000
80402080
60460000
40204082
80424060
40828040
00282042
40804068
60424000
80402080
64640000
80406020
84642040
80424080
20828280
40240460
80286240
A!8040A068
60480000
3!6080B068
60484000
60208042
06020000
10B09020
30B07000
A!A000A000
7!70007000
9!90009000
80602000
30300000
B0B00000
A0A00000
40208000
64642040
64620000
10803040
08028000
42428060
28240260
7020B080
02062080
42428080
62628080
A0601060
04024080
26462060
42428060
10803080
1080B080
B0103090
70B0A0B0
40206000
40826420
4!40000040
;
#SINGLE:BASIC:3:
00000000
00000000
00000000
00000000
80000000
80000000
40000000
40000000
60000000
60000000
20000000
20000000
6!60000000
20300000
4!40000000
20100000
40004000
80008000
20002000
80008000
4!40004000
6!60006000
8!80008000
00000000
6!60006000
4!40004000
2!20002000
00000000
40004000
40004000
80008000
80008000
20002000
20002000
60006000
60006000
B0002000
40008000
40006000
80002000
A0004000
60002000
80402040
60802000
4!40000000
20100000
6!60000000
80900000
60002000
80004000
20004000
80000000
4!40004000
8!80008000
2!20002000
00000000
8!80008000
4!40004000
6!60006000
00000000
B0002000
40204000
8!80808!8080
00000000
40006000
80608000
2!20202!2020
00000000
80006000
20804000
8!80808!8080
00000000
40002000
80602000
6!60606!6060
6!60606!6060
6!60606!6060
6!60606!6060
6!60000000
00000000
B0000000
;
