#TITLE:Rebel Love Song;
#ARTIST:Black Veil Brides;
#FILE:Rebel Love Song.mp3;
#BPM:195.000;
#GAP:180;
#SAMPLESTART:54.300;
#SAMPLELENGTH:14.360;
#SINGLE:BEGINNER:3:
00000000
00000000
60000000
60000000
40000000
40000000
20000000
20000000
80000000
80000000
60000000
40000000
80000000
40000000
20002000
20002000
20000000
40000000
80000000
00000000
40004000
40000000
80008000
80000000
20002000
20000000
40000000
60000000
80008000
80000000
60006000
60000000
40004000
40000000
20000000
40000000
80008000
80000000
40004000
40000000
60006000
60000000
20002000
20000000
80008000
80008000
20002000
20002000
60000000
40000000
20002000
20000000
40004000
40004000
60006000
60006000
80000000
60006000
60000000
40000000
20002000
20002000
40004000
40004000
80000000
40004000
40000000
60000000
80008000
80008000
60006000
60006000
20000000
60006000
60000000
40000000
20000000
40000000
80000000
40000000
60000000
40000000
A0000000
B0000000
A000A000
;
#SINGLE:ANOTHER:10:
00000000
00000000
80804060
20206040
60608020
40408040
80802060
40402040
60608020
40408000
B!40606060
6060B000
A!20808080
8080A000
4!40B!60003!20
00000000
3!60B!40702!20
003!600000
B0208064
00000000
8040B!60B0
A!20A0B!60B0
80207!8070
9!60901!4010
6040A!80A0
B!6046A!80A0
60204020
82804240
60401!2010
A!80A09!6090
20803!6030
7!80709!6090
20407!8070
9!6090B!40B0
80602080
42408280
B0004262
40B0B000
00006242
60B0B000
00004868
40B0B000
80406020
82804240
606!60203!20
80A!80407!40
201!2080A!80
609!6040B0
80206260
80204240
80406260
42408280
404!4060B!60
40B!40807!80
20A!2080A!80
407!402010
40602820
60408480
20604240
82804240
3!60307!4070
B!40B0A!80A0
1!4010B!60B0
A!20A07!8070
60204080
20604240
62604840
68602820
7!4070B!40B0
A!80A0B!60B0
A!20A03!6030
B!40B0A!80A0
40806020
80406860
48406260
42406860
20020020
02008070
30060060
060080A0
B0040040
04008040
24204640
80206242
6284!46!6000
00000000
000000B0
;
#SINGLE:MANIAC:13:
00000000
00000000
40804260
40602848
40604260
40608686
20804260
40602828
40604620
80406262
8!80404040
A!20606060
3!60404040
9!80202020
9!60B!4070A!20
304!407!80A0
6!603!201!401!20
A06!602030
84826421!1
00100000
30408260
42806480
20608240
84604260
A0406280
42806480
10309070
64248260
10802680
20806480
20604260
20406840
90604820
60406420
10907030
84246280
1!40B04262
40703000
9!60B06848
6030A000
7!40104862
4!40B!603080
42624828
42468!8090
A!20A0B!60B0
3!20301!4010
7!80703!2030
9!60901!4010
B!60B04820
68901030
70626260
42482680
1!40703!60B0
A!80703!2030
1!40B0A!2030
1!4070B!6030
A!80762084
84204620
68486408
28424628
42428686
28284646
86864242
62624646
20A06420
4010A090
B!4070301!20
30A06482
64648282
68682424
62624242
82826464
20482064
20109010
B!4070A03!60
B0108046
42086028
04628240
62042068
04806820
46028042
08642840
64286282
68486482
(604840603!30000000)
00000000
00003000
;
#SINGLE:BASIC:7:
00000000
00000000
60002000
80402000
40006000
40208000
60406000
40604000
80208000
20802000
6!60002000
20003000
4!40008000
80007000
60402040
00802000
80406020
00604000
B000000A
00000000
40204080
20804000
60402080
60406000
80602080
40602000
80808020
60606000
80204060
20804000
80402080
60208000
20604020
80204000
80808040
60606000
40008280
20802000
00006460
40604000
00002420
40204000
80406020
80406000
A!A0A03!3030
1!10107!7070
B!B0B09!9090
7!7070B!B0B0
80402040
80206080
2!2000A06!60
004!40B000
3!30301!1010
7!7070B!B0B0
A!A0A03!3030
1!1010B!B0B0
80406020
80406020
6!6000B02!20
008!80A000
9!90901!1010
B!B0B07!7070
3!30307!7070
B!B0B0A!A0A0
80406020
80402080
6!6000B02!20
008!80A000
9!90901!1010
7!70703!3030
B!B0B0A!A0A0
3!30301!1010
80406020
80406080
2!2000108!80
002!2000A0
60406040
80208020
60206020
80408000
40204020
80608060
20802080
40604080
2060B!B000
00000000
0000B000
;
#SINGLE:SMANIAC:15:
00000000
00000000
84204620
84602828
42604620
84608686
28406420
86402424
82608240
64802626
4!40208060
7!80204020
7!40608020
B!608020B0
8!807!4010B!60
30804!4020
7!80902!20A!80
40A!206030
4210328B
(0028206040602080)
A0682864
04284864
24682468
08628462
82642864
04826828
64826424
(60282064604!400040)
84246824
04682862
42684864
04826824
84682468
08628462
84286284
(80262082804!400040)
32840146
28A0B!6030
74820368
24103!6090
B4680128
9!60B!407260
48268486
(4080206040626260)
28A!20187!80
A63!6092A!20
16B!60363!20
A2A!80721!40
76284262
48268248
2690A064
(8020300080424240)
64B!60363!20
A47!80721!40
769!6038A!20
389!60B21!40
74684864
82642480
26287002
(8020300070282820)
681!40743!20
A2B!60B81!40
B4A!20A43!60
B61!4074A!80
72624826
82484684
86B03084
(2040802064646460)
429!60367!80
A8B!40B29!60
B6A!80A67!40
B49!6036A!20
38486284
28626426
3010B084
62826420
6246846!60
00208030
4864264!40
00206070
4262826!60
004040B0
A2482648
26468486
(40286020B!B0000000)
00000000
0000B000
;
#COUPLE:MANIAC:1:
00000000
:
00000000
;
