#TITLE:My Sweet Darlin';
#SUBTITLE:;
#ARTIST:Hitomi Yaida;
#TITLETRANSLIT:;
#SUBTITLETRANSLIT:;
#ARTISTTRANSLIT:;
#CREDIT:;
#BANNER:My Sweet Darlin-bn.png;
#BACKGROUND:My Sweet Darlin-bg.png;
#LYRICSPATH:;
#CDTITLE:;
#MUSIC:My Sweet Darlin.mp3;
#OFFSET:-0.080;
#SAMPLESTART:94.040;
#SAMPLELENGTH:14.260;
#SELECTABLE:YES;
#BPMS:0.000=157.100,159.000=148.240,160.000=78.540,203.000=157.100;
#STOPS:202.500=0.770
;
#BGCHANGES:;

//---------------dance-single - ----------------
#NOTES:
     dance-single:
     :
     Beginner:
     1:
     0.000,0.000,0.000,0.000,0.000:
0000
0000
0000
0000
;

//---------------dance-single - ----------------
#NOTES:
     dance-single:
     :
     Hard:
     13:
     0.575,0.685,0.203,0.130,0.155:
0000
0000
0000
0000
,
0000
0000
0000
0000
,
0000
0000
0000
0000
,
0000
0000
0000
0000
,
0010
0100
0001
1000
0000
0100
1000
0100
,
0000
1000
0001
1000
0000
0010
0100
0010
,
1000
0100
0010
0001
0000
0100
0001
0100
,
0000
0010
1000
0010
0000
0100
0001
0100
,
0010
0010
1000
1000
0100
0100
0010
0010
,
0110
0000
0000
0000
0000
0001
0100
1001
,
0000
0010
0100
0000
0010
0100
0001
0000
,
1000
0001
0100
0000
0010
1000
0100
1000
,
0001
0100
0010
0000
0100
0001
1000
0002
,
0000
0200
0000
0303
0000
0000
0110
0000
,
1000
0100
0001
0100
0000
1000
0100
1000
,
0000
0001
0100
0001
0000
0000
0100
0010
,
2000
0000
3002
0000
0023
0000
0130
1000
,
0000
0100
0001
0000
0100
1000
0010
0000
,
1001
0100
0010
2000
0000
3000
0010
0100
,
0001
0100
0010
0000
1000
0000
0001
0100
,
0101
0101
1100
1100
,
0001
1000
0100
1000
0001
0100
0010
0100
,
0001
0000
0200
0000
0310
2000
0000
0000
,
0100
0000
0100
0000
0100
0100
3100
0000
,
1001
0101
0010
1010
,
1001
0000
0100
0000
1000
0001
0100
0010
,
0100
0001
1000
0100
0001
0100
1000
0010
,
0100
0100
0100
0000
0010
0100
0001
1000
,
0010
0000
1000
0000
0001
0000
0000
0000
0100
0000
0010
0100
0010
0000
2000
0000
,
0000
0000
3002
0000
0000
0000
0000
0003
0010
0000
0001
0000
0100
0000
0010
0000
,
0100
0001
1000
0000
0100
1000
0010
1000
,
0001
0100
0010
0000
1000
0100
0010
0001
,
0100
0000
0010
0000
0100
0000
0000
0000
0001
0000
0100
0010
0100
0000
0001
0000
,
1000
0001
0100
0000
0010
1000
0100
0001
,
0100
1000
0010
0000
1000
0010
0100
0001
,
0100
0010
1000
0000
0001
1000
0100
1000
,
2002
0000
0000
3003
0100
0010
0100
0001
,
1000
0001
0100
0000
0010
1000
0100
1000
,
0001
0010
0100
0000
0010
0001
0100
0010
,
0100
0001
1000
0000
0100
1000
0001
0000
,
0010
0100
0101
0000
0010
1000
1100
0000
,
0001
0100
1010
1000
0001
0100
1001
0100
,
0010
0001
1100
0010
0001
0100
1010
0100
,
0001
0000
1000
0100
1001
0000
0100
0000
0010
0000
1000
0100
1100
0000
0001
0000
,
0100
0000
0010
0100
0101
0000
0010
0000
0100
0000
0001
1000
0110
0000
0001
0000
,
1000
0100
1000
0000
0010
0000
0100
0000
0010
0000
1000
0100
1000
0000
0001
0000
,
0010
0001
0010
0000
0100
0000
0010
0000
0001
0000
0100
0010
1100
0000
0000
0000
,
0010
1000
0010
0000
0100
0000
0001
0000
1000
0000
0100
1000
0001
0000
0100
0000
,
0010
1000
0100
0000
1000
0100
1000
0000
0010
0100
0001
0000
0100
0001
0100
0000
,
0010
1000
0100
0000
1000
0001
1000
0000
0010
0100
0001
0000
0100
0010
0100
0000
,
0001
1000
0001
1000
0010
0000
0000
0000
1001
0100
1001
0000
0010
0000
0100
0000
,
0001
0000
1000
0010
1000
0000
0100
0000
0010
0000
0002
0000
0000
0000
2003
0000
,
0000
3010
0100
0010
1000
0100
1000
0001
,
0010
0000
0001
0010
0100
0010
0001
1000
,
0010
0000
1000
0100
0001
0100
1000
0010
,
0100
0000
0001
1000
0001
0000
1000
0000
0010
0000
0200
0000
0000
0000
0320
0000
,
0000
0130
0001
0100
0010
1000
0100
1000
,
0001
0000
0010
0001
0010
0100
1000
0001
,
0100
0000
1000
0100
0001
0100
1000
0010
,
0100
0000
0001
0010
0100
0000
0010
0000
0001
0000
1000
0000
0010
0000
1000
0000
,
0001
0010
0100
1000
0010
0001
0010
1000
,
0100
1000
0010
0100
0001
1000
0100
0010
,
0001
0100
0010
1000
0001
1000
0100
0010
,
0001
0000
1000
0100
0010
0000
0001
0000
0100
0000
0010
0000
0100
0000
0001
0000
,
0010
1000
0010
0001
1000
0100
1000
0010
,
0100
0001
1000
0100
0001
0100
1000
0010
,
0100
0001
0100
0010
1000
0100
1001
0000
,
0100
0000
0010
0000
0100
0010
0000
0000
1000
0001
0000
0000
0100
0000
0010
0000
,
1000
0000
0001
0000
1000
0100
0000
0000
0001
1000
0000
0000
0010
0000
1000
0000
,
0001
0000
0100
0000
0010
0100
0000
0000
0001
0010
0000
0000
0100
0000
1000
0000
,
0010
0000
0100
0000
0001
0010
0000
0000
0100
1000
0000
0000
0010
0000
0100
0000
,
0001
0000
1000
0000
0100
1000
0000
0000
0010
0100
0000
0000
0001
0000
0100
0000
,
0010
0000
1000
0000
0100
0010
0000
0000
0001
0010
0000
0000
0100
0000
1000
0000
,
0010
0000
0100
0000
0001
1000
0000
0000
0100
1000
0000
0000
0010
0000
0100
0000
,
0001
0000
0010
0000
0100
1000
0000
0000
0001
0100
0000
0000
2020
0000
0000
0000
,
0000
0000
0000
3030
;

//---------------dance-single - ----------------
#NOTES:
     dance-single:
     :
     Medium:
     8:
     0.371,0.438,0.217,0.036,0.000:
0000
0000
0000
0000
,
0000
0000
0000
0000
,
0000
0000
0000
0000
,
0000
0000
0000
0000
,
0001
0100
0010
1000
,
0100
0000
1000
0010
0000
0010
1000
0000
,
0001
0010
0100
1000
,
0010
0000
0100
0001
0000
0001
0100
0000
,
1001
0100
1000
0010
,
0100
0001
0100
0010
0100
0001
1000
0100
,
0000
1000
0100
0010
,
0001
0100
0010
1000
,
0010
0110
1000
1100
,
0001
1000
0010
0100
,
0001
0010
0100
1000
,
0010
1000
0001
0100
,
0010
0110
1000
1100
,
1000
0000
0001
0000
1000
0100
0010
0000
,
0001
0010
0001
0000
0100
0000
0010
0000
,
0100
0001
1000
0000
,
1100
1100
0101
0101
,
1001
0000
0010
0000
1000
0100
0010
0001
,
1000
0010
0010
0000
,
0100
0000
0001
0000
1000
0100
1000
0100
,
0010
0001
1000
0010
,
0100
0001
0010
0000
,
0001
1000
0010
0100
,
0010
1000
0002
0000
0100
0000
0103
0000
,
1010
0000
0000
0000
0100
0001
1000
0000
,
0010
0000
0010
0000
1000
0100
0010
0000
,
0001
0000
0001
0000
0010
0100
1000
0000
,
0001
0000
0001
0000
1000
0100
0010
0001
,
1000
0000
0000
0000
0010
1000
0010
0000
,
0100
0001
1000
0100
,
0010
0000
0010
0000
0100
1000
0100
0000
,
0010
0000
0010
0000
0001
1000
0010
0100
,
0001
0000
0100
0010
,
1010
1010
0100
1000
,
0001
0000
0010
0000
0100
0010
0001
0000
,
0100
0100
0010
1000
,
2001
0100
0010
3100
,
0100
1000
0010
0000
1000
0010
0100
0001
,
0010
0001
0100
0000
0010
0000
1000
0100
,
0010
0010
0001
0000
1000
0000
0001
1000
,
0100
1000
0010
0100
0100
0010
1000
0100
,
0000
1000
0100
0010
0001
0010
0100
1000
,
0010
0100
0010
0000
0100
0000
0001
0100
,
1000
1000
0100
0000
1000
0000
0010
0000
,
1001
0100
1000
0010
,
1000
0100
0010
0001
0100
0010
1000
0000
,
0002
0100
0010
0100
1000
1003
1010
0000
,
0000
0000
0100
1000
0001
0000
0100
0000
,
0100
0010
1000
0001
,
0001
0010
0100
1000
,
1000
0010
0100
1001
,
0000
0000
0100
1000
0010
1000
0100
0000
,
0010
0001
1000
0010
,
0010
1000
0001
0010
,
0010
0000
0100
0010
0100
0010
0000
0000
,
0000
0000
0001
0010
0001
0000
1000
0000
,
0010
0100
0010
0100
,
0100
0010
1000
0001
,
0000
0000
1000
0100
1000
0100
0000
0000
,
0000
0000
1000
0010
0100
0000
0010
0000
,
0100
0001
0010
1000
,
0010
0001
1000
0100
,
1000
0010
0000
0100
,
0010
0110
0110
1000
,
0010
1010
1010
0100
,
0010
0110
0110
1000
,
0100
0001
0010
0100
,
0100
0110
0110
0001
,
0001
0011
0011
0100
,
0100
0110
0110
0010
,
0001
0100
1000
2020
,
0000
0000
0000
3030
;

//---------------dance-single - ----------------
#NOTES:
     dance-single:
     :
     Easy:
     4:
     0.219,0.246,0.058,0.014,0.000: // measure 1
0000
0000
0000
0000
,  // measure 2
0000
0000
0000
0000
,  // measure 3
1000
0000
0010
0100
,  // measure 4
0001
0000
0010
0000
,  // measure 5
0001
0000
0010
0100
,  // measure 6
1000
0000
0010
0000
,  // measure 7
1000
0000
0001
0100
,  // measure 8
0010
0000
0100
0000
,  // measure 9
0001
1000
0001
1000
,  // measure 10
1100
0000
0000
0000
,  // measure 11
0010
0000
1000
0000
,  // measure 12
0100
0000
1000
0000
,  // measure 13
0001
0010
0001
1000
,  // measure 14
0100
0100
0000
0000
,  // measure 15
1000
0000
0010
0000
,  // measure 16
0100
0000
0010
0000
,  // measure 17
1000
0001
0010
0100
,  // measure 18
1000
1000
0000
0000
,  // measure 19
1001
0000
0100
0000
,  // measure 20
0010
0010
0100
0000
,  // measure 21
0001
0001
1000
1000
,  // measure 22
0001
0000
1000
0000
,  // measure 23
0100
1000
0010
0000
,  // measure 24
0000
0100
0100
0001
,  // measure 25
0010
0100
0000
0010
,  // measure 26
0100
0000
0010
0000
,  // measure 27
0001
0000
1000
0000
,  // measure 28
0110
0110
0000
0000
,  // measure 29
1000
0000
0100
0000
,  // measure 30
0010
0000
0001
0000
,  // measure 31
0100
0000
0010
0000
,  // measure 32
1000
0000
0001
0001
,  // measure 33
1000
0000
0010
0000
,  // measure 34
0100
0000
0010
0000
,  // measure 35
1000
0000
0001
0000
,  // measure 36
0010
0000
0100
0100
,  // measure 37
1000
0000
0010
1000
,  // measure 38
0100
0100
1000
0001
,  // measure 39
0010
0000
0001
0100
,  // measure 40
0010
0000
1000
0000
,  // measure 41
1001
0000
0100
0000
,  // measure 42
1000
0010
1000
0001
,  // measure 43
0010
0010
0000
0000
,  // measure 44
0001
1000
0010
0100
,  // measure 45
0001
1000
0100
0000
,  // measure 46
1000
0100
1000
0001
,  // measure 47
0100
0010
0100
0000
,  // measure 48
0001
0001
0000
0000
,  // measure 49
1000
0100
1000
0001
,  // measure 50
0010
0100
1000
0010
,  // measure 51
0100
0000
0001
0000
1000
1000
0001
0000
,  // measure 52
0000
0100
0000
0010
,  // measure 53
0000
1000
0000
0100
,  // measure 54
1000
0010
0010
1000
,  // measure 55
0001
0100
0100
0110
,  // measure 56
0000
0001
0000
1000
,  // measure 57
0000
0100
0000
1000
,  // measure 58
0001
0010
0100
0010
,  // measure 59
0010
0001
0100
0010
,  // measure 60
0000
0100
0010
1000
,  // measure 61
0000
0010
0100
0001
,  // measure 62
0000
0010
0100
1000
,  // measure 63
0000
0001
1000
0001
,  // measure 64
0000
1000
0100
0010
,  // measure 65
0000
0100
0100
0100
,  // measure 66
0000
1000
1000
1000
,  // measure 67
0000
0010
0000
1000
,  // measure 68
0010
1000
0000
0010
,  // measure 69
0100
0010
0000
0100
,  // measure 70
0000
0100
0000
0001
,  // measure 71
0000
1000
0000
0110
,  // measure 72
0000
1000
0000
0010
,  // measure 73
0000
0100
0000
0001
,  // measure 74
0100
0010
0010
1000
,  // measure 75
0100
0010
0010
2002
,  // measure 76
0000
0000
3003
0000
;
