#TITLE:モザイクロール;
#SUBTITLE:;
#ARTIST:GUMI;
#TITLETRANSLIT:Mosaik Role;
#SUBTITLETRANSLIT:;
#ARTISTTRANSLIT:;
#CREDIT:;
#BANNER:Mosaik Role-bn.png;
#BACKGROUND:Mosaik Role-bg.png;
#LYRICSPATH:;
#CDTITLE:;
#MUSIC:Mosaik Role.mp3;
#OFFSET:-0.010;
#SAMPLESTART:89.500;
#SAMPLELENGTH:15.580;
#SELECTABLE:YES;
#BPMS:0.000=145.000;
#STOPS:149.000=0.010
,150.000=0.010
;
#BGCHANGES:-0.500=Mosaik Role.avi=1.000=0=0=0,
99999=-nosongbg-=1.000=0=0=0 // don't automatically add -songbackground-
;

//---------------dance-single - ----------------
#NOTES:
     dance-single:
     :
     Beginner:
     1:
     0.107,0.175,0.034,0.000,0.000:
0000
0000
0000
0000
,
0000
0000
0000
0000
,
0000
0000
0000
0000
,
0000
0000
0000
0000
,
0010
0000
0000
0000
,
1000
0000
0000
0000
,
0010
0000
0000
0000
,
0100
0000
0000
0000
,
0010
0000
0000
0000
,
1000
0000
0000
0000
,
0001
0000
0000
0000
,
0010
0000
0000
0000
,
0001
0000
0000
0000
,
1000
0000
0000
0000
,
0100
0000
0000
0000
,
1000
0000
0000
0000
,
0010
0000
0000
0000
,
0100
0000
0000
0000
,
0001
0000
0000
0000
,
1000
0000
0000
0000
,
0010
0000
0000
0000
,
1000
0000
0000
0000
,
0100
0000
0000
0000
,
1000
0000
0000
0000
,
0001
0000
0000
0000
,
0010
0000
0000
0000
,
0001
0000
0000
0000
,
1000
0000
0000
0000
,
0100
0000
0000
0000
,
0100
0000
0000
0000
,
1000
0000
0000
0000
,
1000
0000
0000
0000
,
0010
0000
0000
0000
,
0010
0000
0000
0000
,
0100
0000
0000
0000
,
0100
0000
0000
0000
,
0001
0000
0001
0000
,
0001
0000
0001
0000
,
1001
0000
0000
0000
,
0100
0000
0100
0000
,
0100
0000
0000
0000
,
0010
0000
0010
0000
,
0010
0000
0000
0000
,
1000
0000
1000
0000
,
1000
0000
0000
0000
,
0001
0000
0001
0000
,
0001
0000
0000
0000
,
0100
0000
0000
0000
,
0010
0000
0010
0000
,
0010
0000
0000
0000
,
0100
0000
0000
0000
,
0001
0000
0000
0000
,
0010
0000
0010
0000
,
0010
0000
0010
0000
,
0110
0000
0000
0000
,
0100
0100
0000
0000
,
1000
1000
0000
0000
,
0001
0001
0000
0000
,
0010
0010
0000
0000
,
0001
0001
0000
0000
,
1000
1000
0000
0000
,
0010
0010
0000
0000
,
1001
0000
0000
0000
,
0100
0000
0000
0000
,
0010
0000
0000
0000
,
1000
0000
0000
0000
,
1001
0000
0000
0000
,
0100
0000
0000
0000
,
0001
0000
0000
0000
,
0010
0010
0010
0010
;

//---------------dance-single - ----------------
#NOTES:
     dance-single:
     :
     Medium:
     8:
     0.376,0.498,0.117,0.201,0.000:
0000
0000
0000
0000
,
0000
0000
0000
0000
,
0000
0000
0000
0000
,
0000
0000
0000
0000
,
0010
1000
0001
0100
,
0010
0000
1000
0001
0000
0000
0000
0000
,
0010
0001
0100
0010
,
1000
0000
0100
0010
0000
0000
0000
0000
,
0001
0010
0100
1000
,
0010
0000
1000
0100
0000
0000
0000
0000
,
1000
0001
0100
0010
,
0100
0000
0001
1000
0000
0000
0000
0000
,
0100
0000
0100
0000
0100
0000
0010
1000
,
0001
0000
0001
0000
0001
0000
0010
0100
,
1000
0000
1000
0000
1000
0000
0010
1000
,
0100
0000
0100
0000
0100
0000
1000
0001
,
0010
0000
0010
0000
0010
0000
0001
1000
,
0001
0000
0001
0000
0001
0000
0100
0010
,
1000
0000
1000
0000
1000
0000
0010
1000
,
0100
0100
0100
1000
,
0010
1000
0001
0100
,
0010
0000
0100
0001
0000
0000
0000
0000
,
0010
0001
1000
0010
,
0100
0000
0010
1000
0000
0000
0000
0000
,
0100
1000
0001
0100
,
0010
0000
0100
0001
0000
0000
0000
0000
,
0100
0001
1000
0100
,
0010
0000
0001
1000
0000
0000
0000
0000
,
0010
0000
1000
0000
0001
0100
0010
0000
,
1000
0000
0001
0000
1000
0100
0010
0000
,
0001
0000
1000
0000
0010
0100
0001
0000
,
0010
0000
0100
0000
0010
0001
1000
0000
,
0010
0000
1000
0000
0001
0100
0010
0000
,
1000
0000
0001
0000
1000
0100
0010
0000
,
0001
0000
1000
0000
0010
0100
0001
0000
,
0100
0000
0010
0000
1000
0001
0100
0000
,
0202
0303
2200
3300
,
0220
0330
1001
1001
,
0010
0000
1000
0000
0001
0100
0001
0000
,
0010
0000
0100
0000
1000
0100
1000
0000
,
0010
0000
1000
0000
0001
0100
0001
0000
,
1000
0000
0001
0000
0100
0010
0100
0000
,
0002
0103
2000
3010
,
0200
0310
2000
3100
,
0001
0000
1000
0000
0010
0100
0001
0000
,
0010
0100
1000
0000
0001
1000
0010
0000
,
0200
0001
0310
0100
,
0001
2000
3100
0000
,
1000
0001
0200
0302
,
0023
0032
2003
3100
,
0000
1000
0001
0200
,
0310
0000
2000
0000
3100
0000
0010
0001
,
0200
0302
2003
3020
,
0230
0010
0310
0000
,
1001
1001
0100
0010
,
1000
0000
0100
1000
0100
0000
0000
0000
,
1100
1100
0001
1000
,
0101
0101
1000
0000
,
0110
0110
1000
0001
,
0100
0000
0010
1000
0100
0000
0000
0000
,
1000
0000
0100
0000
1000
0001
0100
0000
,
0010
0100
0001
0000
0010
0100
1000
0000
,
0001
1000
0010
0100
,
0001
0000
0100
0001
0000
0000
0000
0000
,
0010
0001
1000
0010
,
0100
0000
0010
1000
0000
0000
0000
0000
,
1100
1000
0010
0100
,
0001
0100
0001
0100
0000
0000
0000
0000
,
0010
0100
0001
0010
,
0100
1000
0100
1000
0000
0010
1000
0001
;

//---------------dance-single - ----------------
#NOTES:
     dance-single:
     :
     Hard:
     12:
     0.538,0.498,0.226,0.226,0.075: // measure 1
0000
0000
0000
0000
,  // measure 2
0000
0000
0000
0000
,  // measure 3
0000
0000
0000
0000
,  // measure 4
0000
0000
0000
0000
,  // measure 5
1010
0000
0100
0001
0010
0000
0100
0000
,  // measure 6
0010
0001
0010
0001
1000
0001
1000
0000
,  // measure 7
0100
0000
1000
0010
0100
0000
0010
0000
,  // measure 8
1000
0010
1000
0010
0100
0001
0100
0000
,  // measure 9
0110
0000
0100
0001
1000
0000
0001
0000
,  // measure 10
0010
0100
0010
0100
1000
0001
1000
0000
,  // measure 11
0010
0000
1000
0001
0100
0000
0010
0000
,  // measure 12
1000
0001
1000
0001
0100
0010
0100
0000
,  // measure 13
0010
0000
0000
0010
0100
0000
0001
0000
0000
0000
1000
0000
0000
0000
0100
0000
,  // measure 14
1000
0000
0000
1000
0010
0000
0100
0000
0000
0000
0000
0000
0001
0000
1000
0000
,  // measure 15
0010
0000
0000
0010
0100
0000
0001
0000
0000
0000
0010
0000
0000
0000
0100
0000
,  // measure 16
1000
0000
0000
1000
0010
0000
0100
0000
0000
0000
0010
0000
1000
0000
0010
0000
,  // measure 17
0100
0000
0000
0100
0001
0000
1000
0000
0000
0000
0100
0000
0000
0000
1000
0000
,  // measure 18
0001
0000
0000
0001
0010
0000
0100
0000
0000
0000
1000
0000
0100
0000
0010
0000
,  // measure 19
0001
0000
0000
0001
1000
0000
0010
0000
0000
0000
0100
0000
0000
0000
0001
0000
,  // measure 20
0011
0000
0000
1000
0000
0000
0110
0000
0000
0000
0001
0000
0100
0000
0010
0000
,  // measure 21
0210
0310
0102
0100
,  // measure 22
1000
0010
0100
1003
,  // measure 23
0110
0000
1000
0001
0100
0000
0010
0100
,  // measure 24
0001
1000
0100
1000
0001
0010
0100
0000
,  // measure 25
0110
0000
0011
0000
1000
0001
0100
0000
,  // measure 26
0010
1000
0100
1000
0001
0100
0010
0000
,  // measure 27
0110
0000
0101
0000
0010
0001
0100
0000
,  // measure 28
0010
1000
0001
0010
1000
0010
0001
0000
,  // measure 29
0101
0000
0000
0100
0010
0000
0100
0000
0000
0000
0001
0000
0000
0000
1000
0000
,  // measure 30
0100
0000
0000
0100
1000
0000
0010
0000
0000
0000
0100
0000
0010
0000
1000
0000
,  // measure 31
0001
0000
0000
0001
0010
0000
0001
0000
0000
0000
1000
0000
0000
0000
0010
0000
,  // measure 32
0100
0000
0000
0100
0010
0000
1000
0000
0000
0000
0001
0000
1000
0000
0100
0000
,  // measure 33
0010
0000
0000
0010
0001
0000
0100
0000
0000
0000
0010
0000
0000
0000
0100
0000
,  // measure 34
0001
0000
0000
0001
1000
0000
0100
0000
0000
0000
1000
0000
0010
0000
0100
0000
,  // measure 35
0010
0000
0000
0010
1000
0000
0100
0000
0000
0000
1000
0000
0000
0000
0001
0000
,  // measure 36
0010
0000
0000
0010
0001
0000
0100
0000
0000
0000
0010
0000
0100
0000
0001
0000
,  // measure 37
0201
0310
1002
0013
,  // measure 38
2100
3010
0110
1001
,  // measure 39
0200
0000
0302
0000
0013
0100
1000
0100
,  // measure 40
1000
0010
0100
0010
1000
0001
0010
0100
,  // measure 41
0010
0000
0001
0100
0101
0000
1001
0000
,  // measure 42
0100
1000
0100
1000
0010
0100
0010
0100
,  // measure 43
0002
1003
0020
0130
,  // measure 44
0002
0000
0013
0100
2000
0000
3100
0000
,  // measure 45
0020
0130
2000
3001
,  // measure 46
1000
0001
0010
0001
0100
0010
1000
0001
,  // measure 47
0101
0000
0010
0100
0001
0000
1000
0010
,  // measure 48
1000
0001
0100
0010
1000
0000
0001
0100
,  // measure 49
0010
0000
0010
1000
0200
0000
2300
0000
,  // measure 50
3020
0000
0230
0000
0302
0000
0103
0010
,  // measure 51
0000
0100
0010
1000
0100
0000
1000
0001
,  // measure 52
1000
0000
0010
0100
0001
0000
0100
0001
,  // measure 53
1000
0000
0010
1000
0200
0000
2300
0000
,  // measure 54
3020
0032
0013
0000
,  // measure 55
1010
0000
0010
0000
0100
0000
0001
0000
1000
0000
0000
0000
0001
0000
0100
0010
,  // measure 56
0100
0010
1000
0010
0100
0000
1000
0100
,  // measure 57
2000
0000
3010
0100
0020
0000
0230
0000
,  // measure 58
0301
0000
0101
0000
1100
0000
1000
0001
,  // measure 59
1000
0000
0010
0000
0100
0000
0001
0000
1000
0000
0000
0000
0010
0000
0100
0001
,  // measure 60
0100
0010
1000
0001
1000
0000
0100
0001
,  // measure 61
2000
0000
3010
0100
0002
0000
1003
0000
,  // measure 62
1100
0000
1001
0000
0010
0100
0001
0100
,  // measure 63
0110
0000
0010
1000
0100
0000
0010
0000
,  // measure 64
0100
1000
0100
1000
0001
1000
0001
0000
,  // measure 65
0010
0000
0001
0100
0010
0000
0100
0000
,  // measure 66
0001
0100
0001
0100
0010
1000
0010
0000
,  // measure 67
0110
0010
0100
0001
1000
0000
0010
0000
,  // measure 68
1000
0100
0010
0001
1000
0000
0010
0000
,  // measure 69
0100
0001
0100
1000
0100
0000
0010
0000
,  // measure 70
1000
0100
0010
0001
1000
0010
0010
0010
;

//---------------dance-single - ----------------
#NOTES:
     dance-single:
     :
     Easy:
     4:
     0.240,0.292,0.042,0.000,0.000:
0000
0000
0000
0000
,
0000
0000
0000
0000
,
0000
0000
0000
0000
,
0000
0000
0000
0000
,
0010
0010
0100
0000
,
0001
0100
0001
0000
,
1000
1000
0100
0000
,
1000
0010
1000
0000
,
0010
0010
0100
0000
,
0001
0100
0001
0000
,
1000
1000
0001
0000
,
0100
0010
0100
0000
,
0001
0000
0100
0000
,
0001
0010
0100
0000
,
0010
0000
0001
0000
,
0010
0100
1000
0000
,
0010
0000
0100
0000
,
0010
1000
0001
0000
,
1000
0000
0100
0000
,
1000
0100
0010
0000
,
0001
0001
1000
0000
,
0100
0000
1000
0000
,
0010
0010
0100
0000
,
0010
0000
1000
0000
,
0001
0001
1000
0000
,
0100
0010
0001
0000
,
1000
1000
0010
0000
,
0100
0010
1000
0000
,
0100
0000
1000
0000
,
0001
1000
0010
0000
,
1000
0000
0100
0000
,
0010
0001
0100
0000
,
0010
0000
0100
0000
,
0001
0100
0010
0000
,
0100
0000
0001
0000
,
1000
0100
0010
0000
,
1001
0000
1001
0000
,
0110
0000
0110
0000
,
0010
0010
0100
0001
,
1000
1000
0100
1000
,
0001
0001
1000
0010
,
0100
0100
0010
1000
,
0001
0001
1000
1000
,
0010
0010
1000
1000
,
0100
0100
1000
1000
,
0010
1000
0001
0100
,
0101
0000
0100
0000
,
0010
0010
0010
0000
,
0100
0000
0001
0000
,
1000
0001
1000
0000
,
0100
0000
0100
0000
,
1000
1000
1000
0000
,
0010
0000
1000
0000
,
0100
0100
0100
0000
,
1000
0001
1000
0010
,
0100
0010
1000
0001
,
0010
0001
0001
0100
,
0010
1000
1000
0000
,
0010
1000
0001
0100
,
0010
0100
0001
1000
,
1000
0100
1000
0010
,
0010
0000
0100
0010
,
0100
0000
0001
0000
,
1000
0000
0001
0000
,
0100
0000
0010
0000
,
0100
0000
0001
0000
,
1000
0100
0010
0001
,
0100
0010
0100
0000
,
0001
0100
0010
1000
,
0001
1000
0100
0100
;
