#TITLE:MENDES;
#ARTIST:HUMANOID;
#FILE:MENDES.mp3;
#BPM:168.000;
#GAP:70;
#SAMPLESTART:12.100;
#SAMPLELENGTH:15.540;
#FREEZE:1168.000=1800.000;
#CHANGEBPM:516.000=84.000,636.000=168.000,940.000=335.999,1132.000=168.000;
#SINGLE:BEGINNER:5:
00000000
00000000
80008000
20006000
B0000000
40004000
B000B000
A000A000
00004000
20008000
60002000
80004000
6000B000
20004000
80004000
60008000
2000A000
60004000
80004000
20008000
6000B000
80004000
60008000
20004000
80002020
20202020
20202020
00606060
60606060
60606000
40008000
20006000
B0B00000
00000080
80800040
40400020
20200060
60600080
60202080
40B00020
40600020
80400060
80200080
80808060
20800040
20400080
40600020
008000B0
00202020
00406020
00808080
00B0B000
00000020
20408080
40202040
80804020
20408080
40202040
80804020
00200040
00800080
00400020
00200040
00800080
00400020
00200040
00800080
00400020
00200040
00800080
00400020
80602080
40208060
40B00000
;
#SINGLE:BASIC:9:
00000000
00000000
80802020
62628484
20000000
40406060
B000A000
30401060
00008480
20608!8020
60A04240
80206080
20B08480
20604!4020
80B02040
80206460
00A06260
80204!4080
60104240
80206080
60A06020
84208640
24602080
40208!8020
20A04030
30804060
42604646
284010B0
80206070
60828642
80602040
80604642
86200000
0000008!80
0040207!40
0020607!80
0060207!40
006070A0
00402060
00824080
40208062
60802040
802000B0
A0B0A040
24000084
60208020
60800090
00100060
00424240
00804060
00868680
20406000
00000028
20804240
20868060
28208046
40608680
20464080
26208040
00200080
60200080
00406080
00200040
60200080
00402040
40400080
00606060
00800020
20200080
00606060
00200080
40206080
40682462
40A!A00000
A0000000
;
#SINGLE:SMANIAC:19:
00000000
(8000200062626262)
88226688
(2020404084842424)
60000000
(4000600028282828)
20003000
70B01090
(2424828260208020)
68486428
62826428
(6020804060402086)
(8200B00080402040)
62826848
64246242
(8040208060402086)
(8200B00084204620)
(8260824064204680)
(2860282068208640)
(8260424080206082)
(4600B00026208420)
(8640286028206820)
(4620848042406820)
(4620826020804024)
(6800B00024242400)
(2400242400240024)
(2424002424248264)
(2862646464006200)
(6864006800686462)
(0062686482628428)
(6284248684286284)
(2624828428628424)
(6862800000000000)
[000000000000000000648268]
`200000004000000080000000200000006000000040000000800000000000200000000000000000000000600000000000A00000000000600000000000000000000000400000000000800000002000000080000000400000002000000040000000'
`600000008000000020000000400000008000000020000000600000000000400000000000000000000000800000000000300000000000200000000000000000000000800000000000400000002000000060000000400000008000000060000000'
`200000008000000040000000600000002000000040000000200000000000800000000000000000000000600000000000100000000000200000000000000000000000400000000000200000008000000060000000200000008000000060000000'
`400000002000000080000000400000002000000080000000600000000000400000000000000000000000200000000000400000000000800000000000000000000000200000000000A00000000000200000000000000000000000600000000000'
(023010803060A040)
{100000900000B000200020008000400020008000600020008000000040000000}
26286284
62468428
(6020804060004200)
(6800280046007040)
28624684
28628468
48642890
40308010
(8000A00B00701000)
60A04010
(6000A00900B01000)
80307600
002!20A0BB
(B028262840404084)
(2860303030842482)
(606060824620A0A0)
(A046824840404082)
(6420101010426486)
(202020842460A000)
30124826
46903074
82846410
90A86284
24B090A2
84642896
28424826
48A28426
24826478
28424684
62482842
(806080204080A264)
(2648628486826848)
(2648628426246246)
(8!8800B!B00000000000)
B0000000
;
#SINGLE:ANOTHER:13:
00000000
00000000
82804060
20804264
A0000000
60208424
B0007000
30107000
74682482
68486424
62802628
(4020406000802086)
(0200A00070402080)
62482684
86428628
(2060402080604008)
(0200B04084204080)
(2060802082806040)
(8020604082804060)
(8020406000602084)
(0400300010008040)
2860A062
42807010
90B08428
62801220
10120101
22012248
26988090
98090988
09886824
82684864
28628462
84300000
000000B2
84201084
6280A068
48607024
826030A0
062016A0
{40000060000020008000800000000000A0000000000000003000000020000000}
84082048
26848640
82628010
30709024
82068286
48264280
64028268
209010B0
(8000400600208000)
20308010
(6000400800206080)
28642800
002!20A066
68248884
68444864
22248266
68628882
68222462
88842860
40802062
60208040
20424080
20608048
40806040
80282060
20804024
20408020
60828060
40802062
60208040
20806062
48624848
64264828
60A!A00000
A0000000
;
#SINGLE:MANIAC:17:
00000000
00008462
88226688
44886428
B0000000
84246644
1000A000
30109010
(6040604082608020)
(4060208042806040)
(8020608028602080)
(4060802048406020)
8470A268
(4080604028602080)
(2060402082408020)
(6080204062802060)
4210A268
(4080646420408020)
(6080242480206080)
(2040626280206080)
24B07468
(2040828260802040)
(6020848420806020)
84286464
82B0A2A0
B0110307
870B4B82
68A8A090
110B0363
07472826
82482684
(8060402086824628)
(4642800000000000)
[000000000000000000606808]
[202404800000A00000404808]
[202606800000900000808202]
[404606200000A00000404808]
`200000000000000020000000600000000000000060000000400000000000000000000000000000000000000000000000100000000000000000000000000000000000000000000000300000000000800000000000000000000000400000000000'
(02103080B0801060)
{A000003000001000800080000000000060002000400080006000000020000000}
84028642
48268486
(4080206040002400)
(2400620062008020)
68486042
86284628
26428064
(60002800A0003000)
(804010060080A000)
(6004208060208020)
(6000800200402040)
(2040626262600000)
0000A062
(8042424280602082)
(8282608020464646)
(8020406262628040)
(2086868620804028)
(2824604080686868)
(4020406824646000)
60608246
28202020
84286480
80804684
86404040
24826820
A0208628
46203020
84286280
70804286
4640B040
(2080602080406824)
(6824826482642864)
(2864826482642624)
80B!B00000
B0000000
;
