#TITLE:Good Feeling;
#ARTIST:Flo Rida;
#FILE:Good Feeling.mp3;
#BPM:128.000;
#GAP:80;
#SAMPLESTART:82.540;
#SAMPLELENGTH:14.340;
#SINGLE:BEGINNER:1:
00000000
00000000
00000000
00000000
80000000
80000000
80000000
80000000
20000000
40000000
60000000
B0000000
20002000
00000000
40004000
00000000
60006000
00000000
80008000
00000000
60006000
60000000
20002000
20000000
80008000
80000000
40004000
40000000
20000000
40000000
80000000
40000000
60000000
80000000
60000000
20000000
A0000000
20000000
80000000
40000000
20000000
80000000
60000000
40000000
B0000000
20200000
20000000
40400000
80000000
80800000
20000000
60600000
60006000
60000000
20002000
20000000
80008000
80000000
40004000
40002000
80000000
;
#SINGLE:ANOTHER:6:
00000000
00000000
00000000
00000000
7!40001!200A
8!80009!603!20
A!8000A!2000
3!60009!8000
A!201!407!809!60
9!80A!203!60B!40
1!208A8!8069
604080A0
62408020
80402460
4!40B08!80A0
4!40706!6030
82804060
86208284
40604240
804080B0
26208460
82806480
42406420
46408260
4!40208070
6!60402030
82804240
604080A0
B0B02020
40806020
A0A0B0B0
80602040
84204!40B0
28406!6090
28602!20A0
48208!8070
24246460
26264640
84842420
64646260
80402020
40608080
62408080
42608080
30301084
20406242
60406040
8!80A08!80A0
60442288
6!603!20A!807!40
1!20888!8266
9!60204090
10B08460
46208230
80804020
462080B0
20804280
64804620
88802640
84682482
66!6006000
;
#SINGLE:MANIAC:9:
00000000
00000000
00000000
00000000
30004024
60006242
66002048
60400028
20624284
22448468
20862842
(1000A000B0026040)
(2080600040646086)
48402468
28648428
(6020802000604240)
(0082804020406000)
28264282
(4000802620804000)
(6460408020009!8000)
(A040820620804000)
(8020604204604000)
(8020604802604000)
(8020604204608000)
(6042408000262080)
(0046402040802080)
42648268
486426B0
(B000A00062408000)
42468240
(8040600042608000)
62826420
(4080424080206460)
(8020464080408280)
40842468
(2080604080208460)
08424680
(6042408280406000)
(2080486080802000)
62468460
04BA0691
(002820408040B030)
(0080402086408020)
(6420408260401000)
(B!4000600020002480)
8!80207246
(4082002600640042)
(0028008600602000)
82642464
(8084042028086040)
(2000406020804280)
64!40B!60600
(3020842080604820)
(604240006020B000)
(7040286040804620)
(8040684080604280)
(6040842080604860)
(8404208064242!200A)
(6040842040802840)
(2040682080604262)
8!82!20A0000
;
#SINGLE:BASIC:4:
00000000
00000000
00000000
00000000
8!8000007!40
B!600000B!40
1!200000A!80
9!6000003!20
A!800000A!20
3!6000009!80
A!2000001!40
6!600000B0
20408000
40406000
80602000
80802000
80402000
40604000
80406000
80602000
60602020
80802020
60602020
80802020
60004000
20004000
80402040
80206040
B0002000
80602000
80802060
40208060
40008000
40208060
20208020
60806000
40208060
40208060
40208060
40208060
00200060
00400080
004000B0
00A00000
80808000
40404000
20202000
80808000
40602080
20202020
20008000
40006000
40804000
20806040
80208000
40802060
80608000
20202020
40008040
20004062
6!62!2030000
;
