#TITLE:Flawless (Go To The City);
#ARTIST:George Michael;
#FILE:Flawless (Go To The City).mp3;
#BPM:124.950;
#GAP:1780;
#SAMPLESTART:61.540;
#SAMPLELENGTH:17.980;
#SINGLE:BEGINNER:1:
00000000
00000000
00000000
00000000
80000000
80000000
20000000
20000000
60000000
60000000
40000000
40000000
20000000
20000000
40000000
40000000
80000000
80000000
20000000
20000000
60000000
60000000
40000000
40000000
80008000
80000000
20002000
20000000
60006000
60000000
40004000
40000000
80800000
80000000
40000000
60000000
20200000
20000000
60000000
40000000
80808000
80008000
80000000
40000000
20202000
20002000
20000000
40000000
60600000
60000000
40000000
20000000
80000000
80000000
40000000
60606060
60000000
;
#SINGLE:ANOTHER:6:
00000000
00000000
00000000
00000000
80206040
20408020
8!80802!2020
6040B!B0B0
20406080
60408020
8!80804!4040
60203!3030
80406420
40802080
40602680
6040B!B0B0
20408280
40604020
80602200
80802200
80406420
40802060
40602200
80802200
60402460
40802680
60802480
40604620
80400820
60400680
204080A0
60304010
80200B00
80408260
40602260
80204460
40800700
80206420
40608860
40802280
46460B00
80206420
40804060
80602840
84082062
08406020
B0802260
40608860
42860300
80206040
20204620
80804620
80200700
20604280
60408000
4!40B!603!20A0
A0000B!B0B
;
#SINGLE:MANIAC:7:
00000000
00000000
00000000
00000000
80462080
20604068
(8008000060400000)
80206400
80308460
40804262
00708262
00706408
(8008000020003000)
(8000400064008080)
20682480
40624260
(2006004000000000)
84642042
86208200
64648200
304600A0
62408030
40108460
46462800
(4008002060040020)
(8006004000000000)
84602200
A0642200
(8006002060040080)
(4002008000000000)
64204820
84246824
(8202804000B!B000B0)
00842460
(2080460040400000)
(7002802060604020)
(4808406000B!B000B0)
00262420
(8200640020200000)
(9008602080804000)
(6040802802804000)
(6040208208204000)
(6040804600200800)
(2006004060208000)
42686282
68248460
(2600480020200000)
(B004204080804060)
(2808206000B!B000B0)
(2002000000006040)
28648800
(A002804060604040)
(2806406000B!B000B0)
00826284
(600400A000000000)
4!401!20A!809!60
(3804208000B!B000B0)
;
#SINGLE:BASIC:3:
00000000
00000000
00000000
00000000
80004000
60004000
80004000
20202000
40008000
40006000
80006000
20202000
60004000
80004000
20004000
60606000
40802000
80004000
60004000
20202000
40608000
60004000
60002000
80808000
40602000
80208000
20604000
60606000
80604000
20408000
20804000
60402080
6!60000B00
80208040
60604040
80406000
6!60000300
80406040
20204040
80406000
4!40000B00
20804060
40406060
80602000
8!80000A00
80406040
20204040
80406000
40602020
60402020
40060020
00008080
80406040
20806020
80206000
40208060
B0000B00
;
