#TITLE:Discord (The Living Tombstone's Mix);
#ARTIST:EUROBEAT BRONY;
#FILE:Discord (The Living Tombstone's Mix).mp3;
#BPM:105.000;
#GAP:80;
#SAMPLESTART:27.493;
#SAMPLELENGTH:18.600;
#SINGLE:BEGINNER:1:
00000000
00000000
00000000
00000000
40004000
60006000
20002000
80008000
40000000
60000000
80008000
20000000
40400000
80000000
20200000
60000000
60600000
80000000
20200000
40000000
80000000
40002000
80000000
60004000
80000000
40002000
40000000
80000000
B0000000
20000000
40004000
80008000
20000000
60000000
40000000
80000000
40400000
80000000
20200000
60000000
80800000
20000000
40400000
60000000
;
#SINGLE:ANOTHER:5:
00000000
00000000
00000000
80804040
B0204280
60208020
60208420
40604020
42484!401!20
A0626!6060
20804060
B!B0602010
88004240
82802620
44002820
806!602!2030
66002820
48406260
44002420
4!40206!60B0
20804240
80406260
40608280
60406260
401080A0
40106030
80A06030
40002000
40206020
40802060
86208420
40602080
4!40104420
8!80A08820
8!80908860
2!200080A0
66002840
28604620
66008240
408!802!20A0
44008460
26802860
88006820
B0000008
20000000
;
#SINGLE:MANIAC:11:
00000000
00000000
00000000
80804047
26424820
82628428
60282640
24648268
60426!60B!40
74246!6060
28262842
8!8020A864
(70B!60000038282000)
(6020804024242000)
(107!800000A8282000)
6284!46!60B0
(A0B!40000014242000)
(8060408026262000)
(3090000028282000)
8642!24!401B
(2080406080240080)
(4060208020680020)
(8060408020840020)
(4060802040820060)
(2080402040820080)
(4240804062604080)
(2060408040680020)
482!206!6030
84246828
64842862
84246848
64248260
28B02480
26702680
48642482
(6!6000400026804080)
(A07!80000078284000)
(6040208068286000)
(103!200000A4828000)
4286!64!40B0
(70A!80000072824000)
(8040608028286000)
(90B!40000074648000)
(208404286!600060A0)
40000000
;
#SINGLE:BASIC:3:
00000000
00000000
00000000
00000000
40204080
20804000
80402040
60806000
20802060
40208000
60408020
B!B00000B0
22004020
40008000
44008040
80002000
66008060
80002000
44008020
80004000
B0200040
00800040
00600080
00600020
A0400080
00400060
00800060
60000000
A0208080
40402020
40406060
80806060
20006000
40002000
40208060
B!B00000B0
88004020
40006000
22006080
60004000
88004080
40008000
22006040
60000000
20000000
;
