#TITLE:Crashed the Wedding;
#ARTIST:Busted;
#FILE:Crashed the Wedding.mp3;
#BPM:179.940;
#GAP:40;
#SAMPLESTART:36.780;
#SAMPLELENGTH:15.380;
#FREEZE:420.000=670.000,628.000=17.000,680.000=1020.000,828.000=660.000,868.000=680.000,876.000=650.000;
#CHANGEBPM:828.000=89.970,860.000=92.670,864.000=179.940,1280.000=175.680;
#SINGLE:BEGINNER:2:
00000000
00000000
80000000
40000000
60000000
40000000
20000000
40000000
60000000
80000000
60006000
60000000
20002000
20000000
80008000
80000000
40004000
40000000
60006000
60006000
40004000
40004000
80008000
80008000
20002000
20002000
B0000000
00002000
20002000
00006000
60006000
00004040
40006060
60002020
20200000
00008000
80008000
00004000
40004000
00006060
60004040
40008080
80808000
00000000
00000020
00200000
00000060
00600000
00000040
00400000
00000080
00800000
00002000
20002000
B0000000
00000000
00000000
20202020
20000000
20202020
20000000
80000000
40000000
60000000
40000000
80008000
80004000
40004000
40002000
20202000
20202000
20202020
00000000
80008000
80000000
60006000
60000000
40004000
40006000
60006000
60000000
B0000000
;
#SINGLE:ANOTHER:8:
00000000
00000000
80406028
08206040
60802048
08408020
60802042
04204080
20604062
06208020
00602040
80406020
00402060
80604000
80406002
80206000
40602084
20806000
80602080
40206000
80602080
20604000
80406020
80206000
42408046
20208040
62604240
80804060
20820060
40002040
80260080
60004060
20008040
20004620
82608080
60208080
40240460
20804060
80280820
40802060
40826080
24646020
A0304020
40802064
602080A0
00B00020
406280A0
00700040
60482030
B0402060
80204080
20682460
20604260
80604820
84204620
82682460
00000000
B0B0A0A0
60208040
7070B0B0
20804000
60402080
62804286
40804060
A0603040
20408026
06208460
40208064
04604820
64646000
28282000
64646460
00000000
A0A0B0B0
20408040
B0B03030
80406080
20406420
40802840
62826428
60000000
B!B0000000
00000000
B0000000
;
#SINGLE:MANIAC:13:
00000000
00000000
7!40186026
04246860
3!60384064
04826480
A!20A26082
08682460
B01030B0
82826464
8010B030
8030B024
6010B080
2030B084
6010B046
26464024
64826482
(8000100060484040)
6090B010
80B03064
8010B0A0
2030B024
60703046
2070B020
68486042
1030B080
28206460
10B030B0
84826460
824010B0
30B08260
82406424
60448684
60446282
64209030
282070B0
30262640
24601030
B0424820
82603010
B0A06240
28262642
86462080
26402808
6040201!40
703!60B084
2862847!80
A03!60B024
82642410
30826082
46486842
4826462!20
3!60B!40146!60
3!20A26240
82804240
62642460
48684286
90B01084
24826460
1030B084
24682860
90B01080
70B04628
A03010B0
70206240
82604246
48264820
68208648
46284640
28648022
82642886
64868420
86242684
7090B010
64204868
42406242
84286480
46208260
82406482
A0301090
B!B000B000
3!30000000
(0000000000000003)
;
#SINGLE:BASIC:5:
00000000
00000000
80004000
60402040
60008000
60802080
20004000
80406020
80002000
60004000
00604020
80604000
00802060
80204000
00802060
40208000
60402080
60406000
40406060
20804060
80802020
80604080
20206060
80204080
40408080
20604080
20206060
40402040
80208040
60806060
20802060
40002020
20408080
80206080
20400000
00006040
60408020
60802080
20806040
80206060
40402040
80208040
2080B080
20608020
406000B0
00A00060
20600030
00100040
60200080
40600040
20800060
40602080
20604020
40602080
40406060
20202020
00000000
80804040
60402080
60608080
60208040
20204040
80406020
80808080
80000000
60206040
20806040
80208040
20806000
B0402000
B0602000
A0208040
00000000
B0602080
40204080
20804060
80204080
40406060
20802060
40208060
B!B00000B0
A!A0000000
00000000
A0000000
;
