#TITLE:Caramelldansen;
#ARTIST:Caramell;
#FILE:Caramelldansen.mp3;
#BPM:137.950;
#GAP:1900;
#SAMPLESTART:61.000;
#SAMPLELENGTH:16.180;
#SINGLE:BEGINNER:1:
00000000
00000000
00000000
00000000
20000000
00000000
80000000
40000000
B0000000
00000000
80000000
60000000
20000000
60000000
40000000
20000000
40000000
80000000
A0000000
60600000
60000000
20200000
20000000
80800000
80000000
40400000
40000000
20200000
20000000
80800000
80000000
60600000
60000000
00404040
40000000
60000000
20002000
20000000
60000000
40000000
20000000
80008000
80000000
60000000
20000000
60000000
40000000
60000000
80000000
20000000
B0000000
80800000
80000000
60600000
60000000
40400000
40000000
20200000
20000000
80000000
60000000
40000000
80008000
80000000
20002000
00606060
60000000
40000000
20002000
20002000
20000000
40000000
60000000
80808080
;
#SINGLE:ANOTHER:6:
00000000
00000000
00000000
00000000
20608080
60402040
60602020
80206040
B!B0000000
0000B0B0
80806860
20208480
40402420
40406860
20208280
40402820
60602820
40602680
60604040
60406040
80802020
80208020
682!2040A0
40208060
482!2060A0
20608060
26262080
46464080
42424060
82828060
2!2080A080
40602060
8!802020A0
00109070
20646020
8040A0A0
40686040
2080B0B0
20686020
80407070
20646080
2080B0B0
86868686
00200060
48484848
00200080
26262626
00400060
82828282
00000000
60604060
28260000
40406040
28240000
60408020
60802040
90408020
60484840
B0B08080
B0B02020
B0B08628
40608060
28264060
40682482
60208040
00A0B0A0
60868020
4080A0B0
40682040
6020A090
40682046
2840A070
60428062
8460A0B0
;
#SINGLE:MANIAC:11:
00000000
00000000
00000000
00000008
40608628!8
07802060
86862828
40802068
8!80200020
00A046B0
(2002002006004020)
(8008008006004060)
(8008008006004020)
(4004004006002080)
(4006008006002080)
(2006004002008060)
(8002004006002080)
(2006008000604000)
(8000200068604080)
(2000604240802060)
(4000800026208040)
(6000206860402080)
2!20168!8060
A0686284
6!60384!4020
70284600
A0608640
24628020
68642040
62426080
6!60384!4080
10848264
6!608020B0
00A07090
4!40B28!80A6
86409070
2!20346!6096
28407090
4!40B42!20A2
4620B0A0
6!60382068
90A04860
82828264
060408A0
62626284
60208040
24242484
06020690
28282864
(1000000000484000)
(3000800042406020)
(8000406860208040)
(6000200084802060)
(4000804240608020)
8!80942!2040
A0424826
4!40726!6080
38264640
A8442460
86482080
44662820
48684020
4!40726!6020
90262846
4!408020B0
00A03010
6!60B82!20A4
24641030
8!80764!4014
82689010
6!60B68!80A8
6484B0A0
4!40728042
10B0A030
90000000
;
#SINGLE:BASIC:3:
00000000
00000000
00000000
00000000
20000000
60000000
40004000
60006000
8!80000000
00008080
80006000
20006000
40406060
20208080
20006000
40006000
80806060
40402000
40602080
20608000
60806040
20806000
20604080
20804000
20406020
80206000
80806060
20206060
40402020
40406060
20206060
80802020
40406060
00B0B0B0
B0008000
60208040
60004000
20406020
60008000
60802040
80206040
2080A0A0
00600040
00802060
00400060
00800020
00400060
00206040
00800040
20000000
40400000
60600000
20200000
80800000
20600000
40800000
60800000
20400000
80208060
80408020
80408060
80402080
20608020
40602040
20802060
00B0B0B0
80006000
80602080
40006000
40208060
20006000
40602080
40208060
2080A0A0
;
