#TITLE:Caramelldansen;
#SUBTITLE:(Speedycake Mix);
#ARTIST:Caramell;
#TITLETRANSLIT:;
#SUBTITLETRANSLIT:;
#ARTISTTRANSLIT:;
#CREDIT:;
#BANNER:Caramelldansen (Speedycake Mix)-bn.png;
#BACKGROUND:Caramelldansen (Speedycake Mix)-bg.png;
#LYRICSPATH:;
#CDTITLE:;
#MUSIC:Caramelldansen (Speedycake Mix).mp3;
#OFFSET:-1.500;
#SAMPLESTART:51.180;
#SAMPLELENGTH:16.180;
#SELECTABLE:YES;
#BPMS:0.000=164.200;
#STOPS:;
#BGCHANGES:-4.400=Caramelldansen.avi=1.000=1=0=0,
99999=-nosongbg-=1.000=0=0=0 // don't automatically add -songbackground-
;

//---------------dance-single - ----------------
#NOTES:
     dance-single:
     :
     Beginner:
     1:
     0.120,0.196,0.027,0.000,0.000:
0000
0000
0000
0000
,
0000
0000
0000
0000
,
0000
0000
0000
0000
,
0000
0000
0000
0000
,
0010
0000
0000
0000
,
0000
0000
0000
0000
,
0100
0000
0000
0000
,
0001
0000
0000
0000
,
1001
0000
0000
0000
,
0000
0000
0000
0000
,
0100
0000
0000
0000
,
1000
0000
0000
0000
,
0010
0000
0000
0000
,
1000
0000
0000
0000
,
0001
0000
0000
0000
,
0010
0000
0000
0000
,
0001
0000
0000
0000
,
0100
0000
0000
0000
,
0110
0000
0000
0000
,
1000
1000
0000
0000
,
1000
0000
0000
0000
,
0010
0010
0000
0000
,
0010
0000
0000
0000
,
0100
0100
0000
0000
,
0100
0000
0000
0000
,
0001
0001
0000
0000
,
0001
0000
0000
0000
,
0010
0010
0000
0000
,
0010
0000
0000
0000
,
0100
0100
0000
0000
,
0100
0000
0000
0000
,
1000
1000
0000
0000
,
1000
0000
0000
0000
,
0000
0001
0001
0001
,
0001
0000
0000
0000
,
1000
0000
0000
0000
,
0010
0000
0010
0000
,
0010
0000
0000
0000
,
1000
0000
0000
0000
,
0001
0000
0000
0000
,
0010
0000
0000
0000
,
0100
0000
0100
0000
,
0100
0000
0000
0000
,
1000
0000
0000
0000
,
0010
0000
0000
0000
,
1000
0000
0000
0000
,
0001
0000
0000
0000
,
1000
0000
0000
0000
,
0100
0000
0000
0000
,
0010
0000
0000
0000
,
1001
0000
0000
0000
,
0100
0100
0000
0000
,
0100
0000
0000
0000
,
1000
1000
0000
0000
,
1000
0000
0000
0000
,
0001
0001
0000
0000
,
0001
0000
0000
0000
,
0010
0010
0000
0000
,
0010
0000
0000
0000
,
0100
0000
0000
0000
,
1000
0000
0000
0000
,
0001
0000
0000
0000
,
0100
0000
0100
0000
,
0100
0000
0000
0000
,
0010
0000
0010
0000
,
0000
1000
1000
1000
,
1000
0000
0000
0000
,
0001
0000
0000
0000
,
0010
0000
0010
0000
,
0010
0000
0010
0000
,
0010
0000
0000
0000
,
0001
0000
0000
0000
,
1000
0000
0000
0000
,
0100
0100
0100
0100
;

//---------------dance-single - ----------------
#NOTES:
     dance-single:
     :
     Medium:
     9:
     0.449,0.458,0.275,0.053,0.000:
0000
0000
0000
0000
,
0000
0000
0000
0000
,
0000
0000
0000
0000
,
0000
0000
0000
0000
,
0010
1000
0100
0100
,
1000
0001
0010
0001
,
1000
1000
0010
0010
,
0100
0010
1000
0001
,
2002
0000
0000
0000
,
0000
0000
3003
1001
,
0100
0000
0100
0000
1000
0100
1000
0000
,
0010
0000
0010
0000
0100
0001
0100
0000
,
0001
0000
0001
0000
0010
0001
0010
0000
,
0001
0000
0001
0000
1000
0100
1000
0000
,
0010
0000
0010
0000
0100
0010
0100
0000
,
0001
0000
0001
0000
0010
0100
0010
0000
,
1000
0000
1000
0000
0010
0100
0010
0000
,
0001
0000
1000
0000
0010
1000
0100
0000
,
1000
1000
0001
0001
,
1000
0001
1000
0001
,
0100
0100
0010
0010
,
0100
0010
0100
0010
,
1000
0100
0020
0000
0001
0000
0130
0000
,
0001
0010
0100
1000
,
0001
0100
0020
0000
1000
0000
0130
0000
,
0010
1000
0100
1000
,
0010
1000
0010
1000
0010
0000
0100
0000
,
0001
1000
0001
1000
0001
0000
0100
0000
,
0001
0010
0001
0010
0001
0000
1000
0000
,
0100
0010
0100
0010
0100
0000
1000
0000
,
0020
0100
0130
0100
,
0001
1000
0010
1000
,
0200
0010
0010
0310
,
0000
0011
1100
0101
,
0010
0000
1000
0001
1000
0000
0010
0000
,
0100
0001
0110
0110
,
0001
0000
1000
0100
1000
0000
0001
0000
,
0010
0100
1001
1001
,
0010
0000
1000
0100
1000
0000
0010
0000
,
0100
0001
0101
0101
,
0010
0000
1000
0001
1000
0000
0100
0000
,
0010
0100
1001
1001
,
0100
1000
0100
1000
0100
1000
0100
1000
,
0000
0010
0000
1000
,
0001
0100
0001
0100
0001
0100
0001
0100
,
0000
0010
0000
0100
,
0010
1000
0010
1000
0010
1000
0010
1000
,
0000
0001
0000
1000
,
0100
0010
0100
0010
0100
0010
0100
0010
,
0000
0000
0000
0000
,
1000
1000
0001
1000
,
0010
0100
0010
1000
0000
0000
0000
0000
,
0001
0001
1000
0001
,
0010
0100
0010
0001
0000
0000
0000
0000
,
1000
0001
0100
0010
,
1000
0100
0010
0001
,
1100
0001
0100
0010
,
1000
0000
0001
0100
0001
0100
0001
0000
,
1001
1001
0100
0100
,
1001
1001
0010
0010
,
1001
0000
1001
0000
0100
1000
0010
0100
,
0001
1000
0100
1000
,
0010
0100
0010
1000
0001
0000
1000
0000
,
0001
0000
1000
0100
0010
0001
0100
0010
,
1000
0010
0100
0001
,
0000
0110
1001
0110
,
1000
0000
0100
1000
0100
0000
0010
0000
,
0001
0100
0110
1001
,
0001
0000
1000
0100
0010
0000
0001
0000
,
1000
0010
0110
1100
,
0001
0000
1000
0100
0010
0000
0001
1000
,
0010
0100
0001
0000
0110
0000
0101
0000
,
1000
0000
0001
0010
0100
0000
1000
0010
,
0100
0001
1000
0000
0110
0000
1001
0000
;

//---------------dance-single - ----------------
#NOTES:
     dance-single:
     :
     Hard:
     13:
     0.598,0.558,0.284,0.266,0.106: // measure 1
0000
0000
0000
0000
,  // measure 2
0000
0000
0000
0000
,  // measure 3
0000
0000
0000
0000
,  // measure 4
0000
0000
0000
0000
0000
0000
0000
0100
,  // measure 5
0001
0000
1000
0000
0100
1000
0010
0200
,  // measure 6
0000
0301
0100
0000
0010
0000
1000
0000
,  // measure 7
0100
1000
0100
1000
0010
0100
0010
0100
,  // measure 8
0001
0000
0100
0000
0010
0000
1000
0100
,  // measure 9
0200
0010
0000
0010
,  // measure 10
0000
0000
0310
0000
0001
1000
1001
0000
,  // measure 11
0010
0000
0000
0010
0000
0000
0010
0000
0000
1000
0000
0000
0001
0000
0010
0000
,  // measure 12
0100
0000
0000
0100
0000
0000
0100
0000
0000
1000
0000
0000
0001
0000
1000
0000
,  // measure 13
0100
0000
0000
0100
0000
0000
0100
0000
0000
1000
0000
0000
0001
0000
0010
0000
,  // measure 14
0001
0000
0000
0001
0000
0000
0001
0000
0000
1000
0000
0000
0010
0000
0100
0000
,  // measure 15
0001
0000
0000
1000
0000
0000
0100
0000
0000
1000
0000
0000
0010
0000
0100
0000
,  // measure 16
0010
0000
0000
1000
0000
0000
0001
0000
0000
0010
0000
0000
0100
0000
1000
0000
,  // measure 17
0100
0000
0000
0010
0000
0000
0001
0000
0000
1000
0000
0000
0010
0000
0100
0000
,  // measure 18
0010
0000
0000
1000
0000
0000
0100
0000
0000
0000
1000
0000
0001
0000
0000
0000
,  // measure 19
0100
0000
0000
0000
0010
0000
0000
0000
1000
0100
1000
0000
0001
0000
0100
0000
,  // measure 20
0010
0000
0000
0000
1000
0000
0001
0010
0001
0000
0100
0000
0010
0000
1000
0000
,  // measure 21
0001
0000
0000
0000
0100
0000
0000
0000
0010
1000
0010
0000
0100
0000
0001
0000
,  // measure 22
1000
0000
0000
0000
0010
0000
1000
0100
1000
0000
0001
0000
0010
0000
0100
0000
,  // measure 23
0020
0000
0031
1000
0200
0000
1000
0000
,  // measure 24
0310
0000
1000
0100
1000
0010
0100
0001
,  // measure 25
2000
0000
3010
0100
0002
0000
0010
0000
,  // measure 26
0103
0000
0010
0100
0001
1000
0000
0000
,  // measure 27
0110
0000
1000
0000
0100
1000
0001
0000
,  // measure 28
0010
0001
1000
0010
0100
0000
0010
0000
,  // measure 29
1000
0100
1000
0001
0010
0000
0001
0000
,  // measure 30
1000
0010
0001
0010
1000
0000
0100
0000
,  // measure 31
2000
0000
3010
0100
0002
0000
0100
0000
,  // measure 32
0013
0000
0100
0001
0100
0010
1000
0001
,  // measure 33
2000
0100
0010
3001
,  // measure 34
0000
0110
0101
1100
,  // measure 35
0002
0000
1003
0010
0200
0000
0310
1000
,  // measure 36
0100
1000
0001
0000
1100
0000
0101
0000
,  // measure 37
0020
0000
1030
0001
2000
0000
3100
1000
,  // measure 38
0010
0100
0001
0000
0101
0000
1100
0000
,  // measure 39
0002
0000
1003
0001
0020
0000
0130
0010
,  // measure 40
0001
1000
0010
0000
1001
0000
0110
0000
,  // measure 41
2000
0000
3010
0100
0010
0000
1000
0100
,  // measure 42
1100
0000
0110
0000
0001
0100
1000
0000
,  // measure 43
0100
0010
0100
0010
0100
0010
1000
0001
,  // measure 44
0000
1000
0000
0001
0000
0100
0110
0000
,  // measure 45
1000
0010
1000
0010
1000
0010
0100
0001
,  // measure 46
1000
0010
0100
0001
,  // measure 47
0010
0001
0010
0001
0010
0001
0100
0001
,  // measure 48
0000
1000
0000
0010
0000
1000
1100
0000
,  // measure 49
0010
0100
0010
0100
0010
0100
1000
0001
,  // measure 50
0011
0000
0000
0000
0000
0000
0000
0000
0000
0000
0001
0100
0001
0000
0000
0000
,  // measure 51
1010
0000
0000
0000
0100
0000
0000
0000
0001
0010
0001
0000
1000
0000
0010
0000
,  // measure 52
0100
0000
0000
0000
0001
0000
1000
0100
1000
0000
0010
0000
0100
0000
0001
0000
,  // measure 53
1000
0000
0000
0000
0010
0000
0000
0000
0100
0001
0100
0000
0010
0000
1000
0000
,  // measure 54
0001
0000
0000
0000
0100
0000
0001
0010
0001
0000
1000
0000
0100
0000
0010
0000
,  // measure 55
0200
0000
1300
0001
0020
0000
0001
0000
,  // measure 56
0130
0000
0001
0010
0001
0100
0010
1000
,  // measure 57
0002
0000
0103
0010
2000
0000
0100
0000
,  // measure 58
3010
0100
0010
1000
0001
1000
0001
0000
,  // measure 59
0110
0100
0001
0001
0010
0001
1000
0000
,  // measure 60
0100
1000
0001
0100
0010
0000
0100
0000
,  // measure 61
0001
0001
1000
1000
0010
0100
0010
0000
,  // measure 62
0001
0100
1000
0100
0001
0000
0010
0000
,  // measure 63
0002
0000
0103
0010
2000
0000
0010
0000
,  // measure 64
3100
0000
0010
1000
0010
0100
0001
1000
,  // measure 65
0002
0100
0010
1003
,  // measure 66
0000
0110
1010
0011
,  // measure 67
2000
0000
3001
0100
0020
0000
0130
0001
,  // measure 68
0010
0001
1000
0001
0011
0000
1010
0000
,  // measure 69
0200
0000
0301
1000
0002
0000
0013
0001
,  // measure 70
0100
0010
1000
0100
1100
0000
0011
0000
,  // measure 71
2000
0000
3001
1000
0200
0000
0310
0100
,  // measure 72
1000
0001
0100
0001
1001
0000
0110
0000
,  // measure 73
0002
0000
0103
0010
0100
0000
0001
0010
,  // measure 74
0011
1001
0110
1010
,  // measure 75
1100
0000
0000
0000
;

//---------------dance-single - ----------------
#NOTES:
     dance-single:
     :
     Easy:
     5:
     0.276,0.393,0.098,0.009,0.000:
0000
0000
0000
0000
,
0000
0000
0000
0000
,
0000
0000
0000
0000
,
0000
0000
0000
0000
,
0010
0000
0000
0000
,
1000
0000
0000
0000
,
0001
0000
0001
0000
,
1000
0000
1000
0000
,
0200
0000
0000
0000
,
0000
0000
0300
0100
,
0100
0000
1000
0000
,
0010
0000
1000
0000
,
0001
0001
1000
1000
,
0010
0010
0100
0100
,
0010
0000
1000
0000
,
0001
0000
1000
0000
,
0100
0100
1000
1000
,
0001
0001
0010
0000
,
0001
1000
0010
0100
,
0010
1000
0100
0000
,
1000
0100
1000
0001
,
0010
0100
1000
0000
,
0010
1000
0001
0100
,
0010
0100
0001
0000
,
0010
0001
1000
0010
,
0100
0010
1000
0000
,
0100
0100
1000
1000
,
0010
0010
1000
1000
,
0001
0001
0010
0010
,
0001
0001
1000
1000
,
0010
0010
1000
1000
,
0100
0100
0010
0010
,
0001
0001
1000
1000
,
0000
1001
1001
1001
,
1001
0000
0100
0000
,
1000
0010
0100
0001
,
1000
0000
0001
0000
,
0010
0001
1000
0010
,
1000
0000
0100
0000
,
1000
0100
0010
0001
,
0100
0010
1000
0001
,
0010
0100
0110
0110
,
0000
1000
0000
0001
,
0000
0100
0010
1000
,
0000
0001
0000
1000
,
0000
0100
0000
0010
,
0000
0001
0000
1000
,
0000
0010
1000
0001
,
0000
0100
0000
0001
,
0010
0000
0000
0000
,
0001
0001
0000
0000
,
1000
1000
0000
0000
,
0010
0010
0000
0000
,
0100
0100
0000
0000
,
0010
1000
0000
0000
,
0001
0100
0000
0000
,
1000
0100
0000
0000
,
0010
0001
0000
0000
,
0100
0010
0100
1000
,
0100
0001
0100
0010
,
0100
0001
0100
1000
,
0100
0001
0010
0100
,
0010
1000
0100
0010
,
0001
1000
0010
0001
,
0010
0100
0010
1000
,
0000
1001
1001
1001
,
0100
0000
1000
0000
,
0100
1000
0010
0100
,
0001
0000
1000
0000
,
0001
0010
0100
1000
,
0010
0000
1000
0000
,
0001
1000
0010
0100
,
0001
0010
0100
1000
,
0010
0100
0110
0110
;
