#TITLE:1985;
#SUBTITLE:;
#ARTIST:Bowling For Soup;
#TITLETRANSLIT:;
#SUBTITLETRANSLIT:;
#ARTISTTRANSLIT:;
#CREDIT:;
#BANNER:1985-bn.png;
#BACKGROUND:1985-bg.png;
#LYRICSPATH:;
#CDTITLE:;
#MUSIC:1985.mp3;
#OFFSET:-0.780;
#SAMPLESTART:52.160;
#SAMPLELENGTH:16.180;
#SELECTABLE:YES;
#BPMS:0.000=120.000;
#STOPS:189.000=1.980
;
#BGCHANGES:-1.900=1985.avi=1.000=1=0=0,
99999=-nosongbg-=1.000=0=0=0 // don't automatically add -songbackground-
;

//---------------dance-single - ----------------
#NOTES:
     dance-single:
     :
     Beginner:
     1:
     0.105,0.143,0.051,0.000,0.000:
0000
0000
0000
0000
,
0000
0000
0000
0000
,
0010
0000
0000
0000
,
1000
0000
0000
0000
,
0010
0000
0000
0000
,
0100
0000
0000
0000
,
0001
0000
0000
0000
,
1001
0000
0000
0000
,
1001
0000
0000
0000
,
0100
0100
0000
0000
,
0100
0100
0000
0000
,
0010
0010
0000
0000
,
0010
0010
0000
0000
,
1000
1000
0000
0000
,
1000
1000
0000
0000
,
0001
0001
0000
0000
,
0001
0001
0000
0000
,
0010
0000
0000
0000
,
0001
0000
0000
0000
,
1000
0000
0000
0000
,
0010
0000
0000
0000
,
0100
0000
0100
0000
,
0100
0000
0000
0000
,
0001
0000
0001
0000
,
0001
0000
0000
0000
,
1000
0000
0000
0000
,
0110
0000
0000
0000
,
0010
0010
0010
0000
,
0010
0000
0000
0000
,
1000
0000
0000
0000
,
0001
0000
0000
0000
,
0100
0100
0100
0000
,
0100
0000
0000
0000
,
0010
0000
0010
0000
,
0010
0000
0010
0000
,
0010
0000
0000
0000
,
1000
0000
0000
0000
,
0001
0000
0000
0000
,
0100
0100
0100
0100
,
0100
0000
0000
0000
,
0010
0000
0000
0000
,
1000
0000
1000
0000
,
1000
0000
0000
0000
,
0010
0000
0000
0000
,
1000
0000
0000
0000
,
0001
0000
0000
0000
,
1001
0000
1001
0000
,
1001
0000
0000
0000
,
0000
0000
0100
0100
,
0100
0000
0100
0000
,
0000
0000
0001
0000
,
0000
0000
1000
0000
,
0000
0000
0010
0010
,
0010
0000
0010
0000
,
0000
0000
0100
0000
,
0100
0000
0100
0000
;

//---------------dance-single - ----------------
#NOTES:
     dance-single:
     :
     Medium:
     8:
     0.345,0.334,0.069,0.137,0.000:
0000
0000
0000
0000
,
0000
0000
0000
0000
,
0010
0100
0000
0000
0001
1000
0000
0000
,
0100
1000
0100
1000
0100
0000
0000
0000
,
1000
0001
0000
0000
0100
0010
0000
0000
,
0100
0001
0100
0001
0100
0001
0000
0000
,
0010
0001
0000
0000
1000
0010
0000
0000
,
0100
0100
0000
0000
0100
0100
0000
0000
,
0100
0100
0000
0000
0100
0100
0000
0000
,
0010
0000
1000
0100
1000
0000
0001
0000
,
0100
0000
0010
0100
0010
0000
1000
0000
,
0001
0000
0010
0001
0010
0000
0100
0000
,
1000
0000
0001
1000
0001
0000
1000
0000
,
0010
0010
1000
0000
0010
0100
0010
0000
,
1000
1000
0001
0000
0100
0010
0100
0000
,
0001
0001
0010
0000
0001
1000
0001
0000
,
0010
0010
0100
0000
1000
0100
1000
0000
,
0020
2030
3200
1300
,
0020
2030
3002
0103
,
0010
0100
0001
0000
0010
0100
1000
0000
,
0001
1000
0100
0000
0010
0001
1000
0000
,
0020
0230
0302
0013
,
0002
2003
3200
1300
,
0010
1000
0001
0000
0010
0100
1000
0000
,
0010
0010
0000
0000
1000
1000
0000
0000
,
0001
0001
0000
0000
0100
0100
0000
0000
,
0010
1000
0001
0100
,
0010
0100
0010
0000
1000
0010
1000
0010
,
0100
0001
1000
0100
,
0010
0001
1000
0000
,
0001
0010
0100
1000
,
0010
0100
0010
0100
0010
0100
0000
0000
,
0010
0000
1000
0000
0001
1000
0001
0000
,
0000
0000
0100
0100
0000
0000
0010
0010
,
0000
0000
1000
1000
0001
0001
1000
0000
,
0010
0100
0000
0000
0001
0100
0000
0000
,
1000
0100
1000
0100
1000
0100
0000
0000
,
0010
0001
0000
0000
1000
0010
0000
0000
,
1000
0100
0010
0001
0100
0010
0100
0000
,
0002
1000
1000
1003
,
0200
0010
0010
0310
,
1000
0100
1000
0000
0010
1000
0001
0000
,
0110
0101
2002
3003
,
0010
0000
1000
0100
1000
0000
0010
0000
,
0100
0000
0001
0100
0001
0000
1000
0000
,
0001
1001
0110
1001
,
0100
0100
0000
0000
0010
0010
0000
0000
,
1000
1000
0001
0000
0100
0000
0001
0000
,
1000
0000
0010
0000
0100
0010
0100
0000
,
0001
0100
0001
0100
0010
0000
1000
0000
,
0001
0010
0100
1000
,
0001
0000
1000
0100
,
0010
0000
0001
0000
0100
0010
0100
0010
,
0100
0010
0000
0000
0100
0000
0001
0000
,
1000
0001
1000
0000
0010
0010
0000
0000
,
1000
1000
0000
0000
1010
1010
0000
0000
;

//---------------dance-single - ----------------
#NOTES:
     dance-single:
     :
     Hard:
     11:
     0.517,0.597,0.463,0.077,0.073: // measure 1
0000
0000
0000
0000
,  // measure 2
0000
0000
0000
0000
,  // measure 3
1000
0100
0000
1000
0001
0100
0000
0010
,  // measure 4
1000
0100
0001
0010
0020
0000
0030
0000
,  // measure 5
0001
0100
0000
0010
1000
0001
0000
1000
,  // measure 6
0100
0010
0001
1000
0010
0100
0000
0010
,  // measure 7
1000
0001
0000
0010
0100
1000
0000
0000
,  // measure 8
1001
1001
0000
0000
0110
0110
0000
0000
,  // measure 9
1100
1100
0000
0000
1001
1001
0000
0000
,  // measure 10
0101
0101
0001
0100
0001
1000
0100
0000
,  // measure 11
1010
1010
0010
0100
0010
1000
0001
0000
,  // measure 12
0110
0110
0010
0100
0001
1000
0100
0000
,  // measure 13
0011
0011
0001
1000
0010
0100
0001
0000
,  // measure 14
1001
1001
0100
0001
0100
1000
0010
0000
,  // measure 15
0101
0101
0010
1000
0100
0010
0001
0000
,  // measure 16
1010
1010
0001
0100
1000
0100
0001
0000
,  // measure 17
0011
0011
0100
1000
0001
0100
0020
0000
,  // measure 18
1030
0000
0010
0000
0100
0001
0100
0001
0100
0000
0010
0000
0100
0000
0001
0000
,  // measure 19
1000
0000
0000
0000
0100
0010
0100
0010
0100
0000
0010
0000
0001
0000
0000
0000
,  // measure 20
0100
0000
0010
0000
1000
0100
1000
0100
1000
0000
0010
0000
0100
0000
0000
0000
,  // measure 21
0010
0000
1000
0001
1000
0000
0010
0000
0100
0000
0001
0000
1000
0000
0000
0000
,  // measure 22
0010
1000
0100
0001
0100
0100
1000
0000
,  // measure 23
0010
1000
0001
0010
0010
0001
0001
0000
,  // measure 24
0100
0010
0100
0001
1000
0100
0010
0000
,  // measure 25
1001
1001
0100
0100
1010
1010
0001
0001
,  // measure 26
0110
0000
0110
0000
2000
0000
0000
0000
3002
0000
0000
0000
0103
0010
0100
0010
,  // measure 27
0100
0001
0000
1000
0100
0001
0000
1000
,  // measure 28
0001
0010
1000
0010
0001
1000
0010
0100
,  // measure 29
0001
1000
0000
0100
0001
0010
0000
1000
,  // measure 30
0001
0000
0010
0000
0100
0000
1000
0000
0010
0000
0100
0000
0010
1000
0010
1000
,  // measure 31
0001
0100
0000
0010
1000
0001
0000
1000
,  // measure 32
0100
0001
0010
0001
0100
0010
0000
0100
,  // measure 33
0010
1000
0000
0010
1000
0001
0100
0000
,  // measure 34
0101
0101
0100
0001
1010
1010
0010
0100
,  // measure 35
1001
1001
0110
0110
0101
0101
1100
0000
,  // measure 36
0001
0100
0000
0010
1000
0001
0000
1000
,  // measure 37
0100
0010
0001
1000
0010
0100
0000
0010
,  // measure 38
0100
0001
0000
0010
0100
1000
0000
0000
,  // measure 39
0001
1000
0010
0001
0010
1000
0100
1000
,  // measure 40
0010
0101
1100
1001
,  // measure 41
0010
0110
0101
1100
,  // measure 42
0001
0001
1000
1000
0010
0100
0001
0000
,  // measure 43
1000
0001
1000
0000
0200
0000
0320
0000
,  // measure 44
0032
0100
0010
0103
,  // measure 45
2000
0100
0001
3010
,  // measure 46
0200
0010
0001
0310
,  // measure 47
1001
1001
0010
0000
0101
0101
1000
0000
,  // measure 48
0110
0110
1001
0000
0010
1000
0000
0001
,  // measure 49
0010
1000
0000
0001
1000
0100
0001
0100
,  // measure 50
1000
0001
0100
0010
1000
0001
0000
0010
,  // measure 51
1000
0100
0000
0001
1000
0100
0010
0001
,  // measure 52
0100
0000
0010
0000
0100
0001
0100
0001
1000
0000
0010
0000
0000
0000
0100
0000
,  // measure 53
0001
1000
0000
0001
0010
1000
0100
1000
,  // measure 54
0010
0100
0000
0010
0100
0001
0000
0100
,  // measure 55
0001
0000
1000
0000
0010
0000
0000
0000
0100
0000
0100
0000
0001
0010
0001
0010
,  // measure 56
0100
0000
0100
0000
1000
0010
1000
0010
0100
0000
0100
0000
0000
0000
0000
0000
;

//---------------dance-single - ----------------
#NOTES:
     dance-single:
     :
     Easy:
     3:
     0.215,0.263,0.009,0.137,0.000:
0000
0000
0000
0000
,
0000
0000
0000
0000
,
1000
0000
1000
0000
,
2000
3000
0000
0000
,
0001
0000
0001
0000
,
0002
0003
0000
0000
,
0100
0000
0100
0000
,
0200
0300
0200
0300
,
0200
0300
0200
0300
,
0010
0010
0000
0000
,
1000
1000
0000
0000
,
0001
0001
0000
0000
,
0100
0100
0000
0000
,
0010
0010
0010
0000
0000
0000
0000
0000
,
1000
1000
1000
0000
0000
0000
0000
0000
,
0001
0001
0001
0000
0000
0000
0000
0000
,
1000
1000
1000
0000
0000
0000
0000
0000
,
0100
0000
1000
0000
,
0010
0000
1000
0000
,
0010
0000
0100
0000
,
0001
0000
0010
0000
,
0001
0000
1000
0000
,
0010
0000
1000
0000
,
0001
0000
0010
0000
,
0100
0100
1000
1000
,
0010
0010
0100
0100
,
0001
0001
1000
1000
,
0010
1000
0001
1000
,
0100
0100
0010
0010
,
0001
1000
0100
0000
,
1000
1000
0001
0001
,
0010
0001
1000
0100
,
0010
0010
0100
0100
,
1000
1000
1000
0000
0001
0001
0001
0000
,
1000
1000
1000
0000
0001
0001
0001
0000
,
0100
0000
0100
0000
,
0200
0300
0000
0000
,
0001
0000
0001
0000
,
0002
0003
2000
3000
,
0200
0000
0310
0000
,
0020
0000
0031
0000
,
0002
0000
0103
0000
,
0200
0000
0310
0000
,
0020
1000
1030
0000
,
2000
0100
3100
0000
,
0002
1000
1003
0000
,
0010
0010
0000
0000
0100
0100
0000
0000
,
0001
1001
1000
1000
,
0001
0001
0100
0001
,
1000
0001
0010
0010
,
0100
0100
1000
0001
,
0010
0000
0001
0001
,
1000
1000
0100
1000
,
0001
0010
0100
0100
,
0010
0000
0010
0000
0001
0001
0001
0000
,
1000
1000
1000
0000
0001
0001
0000
0000
;
