#TITLE:Elastic Heart;
#SUBTITLE:;
#ARTIST:Sia;
#TITLETRANSLIT:;
#SUBTITLETRANSLIT:;
#ARTISTTRANSLIT:;
#GENRE:Symbolism;
#CREDIT:;
#BANNER:Elastic Heart.png;
#BACKGROUND:Elastic Heart-bg.png;
#LYRICSPATH:;
#CDTITLE:;
#MUSIC:Elastic Heart.ogg;
#OFFSET:-1.170000;
#SAMPLESTART:99.023842;
#SAMPLELENGTH:13.714000;
#SELECTABLE:YES;
#BPMS:0.000000=130.000000
;
#STOPS:
;
#BGCHANGES:4.000=Elastic Heart.avi=1.000=0=0=1=====,
99999=-nosongbg-=1.000=0=0=0 // don't automatically add -songbackground-
;
#KEYSOUNDS:;
#ATTACKS:;

//---------------dance-single - ----------------
#NOTES:
     dance-single:
     :
     Hard:
     8:
     0.568149,0.637131,0.182769,0.146215,0.233944,499.000000,25.000000,20.000000,0.000000,0.000000,0.000000,0.568149,0.637131,0.182769,0.146215,0.233944,499.000000,25.000000,20.000000,0.000000,0.000000,0.000000:
0000
0000
0000
0000
,
0000
0000
0000
0000
,
0000
0000
0000
0000
,
0000
0000
0000
0000
,
0001
0010
0000
0000
0001
0000
1000
0000
0010
0100
0000
0100
0001
0000
1000
0000
,
1100
0000
0100
1000
0010
0010
0100
0001
,
1000
0100
1000
0010
0100
0001
1000
0000
,
0011
0000
0010
0001
0100
0100
0010
1000
,
0001
0000
0010
0001
0000
0000
0100
0000
0100
0000
0010
0000
1000
0000
0000
0000
,
1001
0000
0100
0010
1000
1000
0001
0010
,
0100
0010
0001
1000
0010
0100
0001
0000
,
1001
0000
0010
0100
0001
0001
1000
0100
,
0010
0100
1000
0001
0100
0010
1000
0000
,
0101
0000
1001
0000
0010
1000
0001
0010
,
0010
0100
0100
1000
0010
0100
0001
0000
,
0101
0000
1100
0000
0001
1000
0010
0100
,
0100
0001
0010
0100
0100
0010
0001
1000
,
1010
0000
1001
0000
0100
0001
1000
0100
,
0010
0010
0001
1000
0010
1000
0001
0000
,
0101
0000
1100
0100
0010
0001
1000
0010
,
0100
0000
0100
0000
0100
0000
0100
0000
0001
0000
1000
0010
1000
0000
0100
0000
,
0020
0000
0000
0000
0031
0000
1000
0000
0010
0100
0000
0000
0100
0001
0000
0000
,
0001
0010
0000
0000
0010
0100
0000
0000
0100
0000
1000
0000
0010
0000
0100
0000
,
0002
0000
0013
0100
0010
0001
0100
0010
,
2000
0000
3100
0010
0100
1000
0010
0100
,
0002
0000
0000
0000
1003
0000
0001
0000
0100
0010
0000
0000
0010
1000
0000
0000
,
1000
0100
0000
0000
0100
0010
0000
0000
0010
0000
0001
0000
0100
0000
0010
0000
,
1000
0000
0000
0001
0000
0000
0100
0000
0100
0000
0000
0001
0000
0000
1000
0010
,
1000
0000
0001
0010
0001
0000
0100
0000
0010
0100
0000
0010
0001
0000
0010
0000
,
2000
0000
3100
1000
0010
0001
0010
0100
,
0002
0000
0013
0001
0100
1000
0100
0010
,
1000
0100
0010
0001
0100
0010
1000
0000
,
0001
0000
0100
0010
0100
0000
0001
0000
0010
0000
1000
0000
0020
0000
0000
0000
,
0032
0000
0013
0001
0100
1000
0100
0010
,
2000
0000
3100
1000
0010
0001
0010
0100
,
0001
0010
0100
1000
0010
0100
0001
0000
,
1000
0000
0010
0100
0010
0000
1000
0000
0100
0000
0001
0000
0200
0000
0000
0000
,
1300
0010
0100
0001
0010
0001
1000
0010
,
0100
0000
0010
0000
1000
0000
0100
0000
0010
0000
0001
0000
1000
0010
1000
0010
,
1000
0000
0001
0100
0100
1000
0100
0001
,
0010
0000
1000
0010
0001
0100
1000
0100
,
0001
0100
0010
1000
0100
1000
0001
0100
,
0010
0000
0100
0000
0001
0000
0010
0000
0100
0000
1000
0000
0001
0100
0001
0100
,
0001
0000
1000
0010
0010
0001
0010
1000
,
0100
0000
0001
0100
1000
0010
0001
0010
,
2000
0000
3000
0000
0001
0100
1000
0010
,
1010
0101
0011
1100
,
1002
0100
0010
0103
0000
0000
0000
1000
,
1200
0310
2001
3100
,
0202
0000
0303
0000
1000
0010
0001
0100
,
0101
0000
1000
0010
0001
0010
1000
0000
,
1100
0000
0000
0010
1001
0200
0000
0300
,
0001
0000
0000
1000
0000
0000
0001
0000
0000
0000
0000
0000
0100
0000
0000
0010
0000
0000
0100
0000
0000
0000
0000
0000
0001
0000
0000
0100
0000
0000
0001
0000
0000
0100
0000
0000
0001
0000
0000
0000
0010
0000
0000
0000
0100
0000
0000
0000
,
1000
0000
0010
0000
1000
0000
0100
0000
0010
0001
0010
0001
0010
0000
0001
0000
,
1000
0000
0010
0000
0100
0000
0001
0000
1000
0000
0010
0000
1000
0001
1000
0001
,
0100
0000
0010
0100
0001
0001
0100
0010
,
1000
0000
0100
0010
0000
0010
0100
0000
1000
0000
0010
0000
0200
0000
0000
0000
,
0301
0000
0100
0000
0001
0000
0010
0000
0100
1000
0100
1000
0100
0000
1000
0000
,
0001
0000
0100
0000
0010
0000
1000
0000
0001
0000
0100
0000
0001
1000
0001
1000
,
0010
0000
0100
0010
1000
1000
0010
0100
,
0001
0000
0010
0100
0000
0100
0010
0000
0001
0000
0100
0000
0020
0000
0000
0000
,
1030
0000
0001
0000
0100
0000
0010
0000
1000
0100
0000
0000
1000
0001
0000
0000
,
0100
0010
0000
0000
1000
0100
0000
0000
0010
0001
0000
0000
1000
0010
0000
0000
,
1001
0000
0000
0000
0100
0000
0001
0000
1000
0100
1000
0000
0010
0000
1000
0000
,
0001
0100
0001
0000
1000
0000
0001
0000
0010
0100
0010
0000
0001
0000
1000
0000
,
0001
0000
1000
0000
0010
0000
0100
0000
0001
0010
0000
0000
0001
1000
0000
0000
,
0010
0100
0000
0000
0001
0010
0000
0000
0100
1000
0000
0000
0001
0100
0000
0000
,
1001
0000
0000
0000
0010
0000
1000
0000
0001
0010
0001
0000
0100
0000
0001
0000
,
1000
0010
1000
0000
0001
0000
1000
0000
0100
0010
0100
0010
0100
1000
0010
0100
,
0001
0000
0000
1000
1000
0000
0001
0000
,
0100
0000
0000
0010
0000
0000
1000
0000
,
0200
0000
0000
0000
,
0000
0000
0000
0000
0000
0300
0000
0000
;

//---------------dance-single - ----------------
#NOTES:
     dance-single:
     :
     Medium:
     6:
     0.404180,0.451301,0.270498,0.285119,0.000000,311.000000,37.000000,39.000000,0.000000,0.000000,0.000000,0.404180,0.451301,0.270498,0.285119,0.000000,311.000000,37.000000,39.000000,0.000000,0.000000,0.000000:
0000
0000
0000
0000
,
0000
0000
0000
0000
,
0000
0000
0000
0000
,
0000
0000
0000
0000
,
0001
0000
1000
0000
0010
1000
0001
0000
,
0110
0000
0100
0000
0010
1000
0100
0000
,
0020
0032
2003
3010
,
1001
0000
0101
0000
0100
0001
0010
0000
,
0001
0010
0100
1000
0010
0100
0001
0000
,
0110
0000
0010
0000
0100
0001
0010
0000
,
0200
2300
3002
0103
,
1001
0000
1010
0000
0010
1000
0100
0000
,
1000
0100
0010
0001
0100
0010
1000
0000
,
0001
0000
1000
0000
0010
1000
0001
0000
,
0100
0100
0010
0010
0100
0100
0010
0000
,
0100
0000
0001
0000
0010
0100
1000
0000
,
0001
1000
0100
0000
1000
0001
0100
0000
,
0001
0000
0000
0000
1000
0010
0100
0000
,
0002
0023
0230
1300
,
1001
0000
0000
0000
0100
0010
0100
0000
,
0001
0001
1000
1000
0000
0100
0010
0000
,
0001
0010
0100
0000
2000
0000
3200
0000
,
0302
0203
2300
3020
,
0130
0000
0001
0100
0010
0000
1000
0000
,
0001
0000
1000
0000
0010
0010
0100
0001
,
1000
0100
0010
0000
0002
0000
0023
0000
,
2030
3020
0032
0203
,
0310
1000
0001
0010
,
0100
1000
0001
0000
0100
0001
1000
0000
,
0110
0000
1001
0000
0100
0001
1000
0000
,
0110
0000
1001
0000
0010
1000
0001
0000
,
0200
0000
0310
0100
,
0001
0010
0100
1000
0010
0100
0001
0000
,
0101
0000
1010
0000
1000
0100
0010
0000
,
0001
0000
1000
0010
1000
0001
0100
0000
,
0020
0000
0130
0001
,
1000
0100
1000
0000
0001
0100
0001
0000
,
1000
0100
0011
0110
,
1100
1001
1010
0110
,
1002
0000
0103
0010
,
0100
0001
1000
0000
0100
1000
0001
0000
,
0001
0010
1100
0110
,
0011
1001
0101
0110
,
2001
0000
3010
0100
,
0010
1000
0001
0000
0010
0001
1000
0000
,
1001
0000
0000
0000
1000
0100
0010
0001
,
1000
0010
1000
0001
,
0200
0300
0000
0000
,
0002
2003
3020
0230
,
0310
0000
0000
0000
0100
0001
0010
0100
,
2000
3002
0023
0032
,
1003
0000
0000
0000
,
0010
0000
1000
0000
0001
0100
0010
1000
,
0001
0000
1000
0100
1000
0001
1000
0000
,
0000
0000
0001
0100
0001
1000
0001
0000
,
0000
0010
0100
0110
,
0001
0010
0100
0000
1000
0001
0100
0000
,
1001
0000
0001
0010
0001
1000
0001
0000
,
0000
0000
1000
0010
1000
0001
1000
0000
,
0000
0100
0010
0110
,
1000
0100
0010
0000
0001
1000
0100
0000
,
2010
0010
0001
0100
,
0010
0001
0100
0010
,
3001
0000
0100
0001
1000
0000
0001
0000
,
1001
0000
0101
0000
0100
0010
1000
0000
,
0102
0100
1000
0010
,
0100
1000
0010
0100
,
1003
0000
0010
1000
0001
0000
1000
0000
,
1001
0000
0110
0000
0001
0010
0100
1000
,
0020
0000
0000
0030
,
0200
0000
0000
0000
,
0002
0000
0000
0000
,
0000
0000
0000
0000
0000
0303
0000
0000
;

//---------------dance-single - ----------------
#NOTES:
     dance-single:
     :
     Easy:
     4:
     0.248565,0.398207,0.014621,0.299740,0.000000,195.000000,2.000000,41.000000,0.000000,0.000000,0.000000,0.248565,0.398207,0.014621,0.299740,0.000000,195.000000,2.000000,41.000000,0.000000,0.000000,0.000000:
0000
0000
0000
0000
,
0000
0000
0000
0000
,
0000
0000
0000
0000
,
0000
0000
0000
0000
,
0001
0100
0010
1000
,
0001
0000
1000
0000
,
0010
1000
0100
0010
,
0001
0000
1000
0000
,
0010
1000
0001
0100
,
0010
0000
0100
0000
,
0001
0010
0001
1000
,
0100
0000
1000
0000
,
0010
1000
0001
0100
,
0010
0000
1000
0000
,
0100
0010
0100
0010
,
0001
0000
1000
0000
,
0010
0100
0010
0100
,
0001
0000
1001
0000
,
1000
0001
0100
0000
,
0001
0000
1001
0000
,
0001
1000
0100
0000
,
1000
0000
0002
2003
,
3020
0230
0302
2003
,
3200
0000
0000
0000
,
0300
0000
0010
0000
,
0001
0000
2000
3002
,
0203
0320
2030
3002
,
0023
0000
0000
0000
,
0030
0000
0100
0000
,
1000
0000
0001
1000
,
0010
0000
1000
0001
,
0100
0000
0001
0000
,
0010
0010
0100
0010
,
0001
0000
1000
0001
,
0100
0000
0001
1000
,
0010
0000
1000
0000
,
0100
0100
0010
0100
,
1000
0000
0002
2003
,
3020
0230
0302
2003
,
3100
0000
1000
0000
,
0001
1000
0010
0100
,
0001
0000
2000
3002
,
0203
0320
2030
3002
,
0013
0000
0001
0000
,
1000
0001
0100
0010
,
1000
0000
0010
0100
,
0001
0001
0001
1000
,
0100
0000
0000
0000
,
1000
1000
0001
0001
,
0001
0000
0100
0010
,
1000
1000
1000
0001
,
0010
0000
0000
0000
,
0001
0001
1000
1000
,
0001
0000
1000
0001
,
0100
0000
0001
1000
,
0010
0000
1000
0000
,
0100
0100
0010
0100
,
1000
0000
0001
1000
,
0010
0000
1000
0001
,
0100
0000
0001
0000
,
0010
0010
0100
0010
,
0001
0000
2000
3002
,
0203
0320
2030
3002
,
0013
0000
0001
0000
,
1000
0001
0100
0010
,
1000
0000
0002
2003
,
3020
0230
0302
2003
,
3100
0000
1000
0000
,
0001
1000
0010
0100
,
0002
0000
0000
0003
,
2000
0000
0000
3000
,
0200
0000
0000
0000
,
0000
0000
0000
0000
0000
0300
0000
0000
;

//---------------dance-single - ----------------
#NOTES:
     dance-single:
     :
     Beginner:
     2:
     0.174413,0.212377,0.065797,0.007311,0.000000,157.000000,9.000000,1.000000,0.000000,0.000000,0.000000,0.174413,0.212377,0.065797,0.007311,0.000000,157.000000,9.000000,1.000000,0.000000,0.000000,0.000000:
0000
0000
0000
0000
,
0000
0000
0000
0000
,
0000
0000
0000
0000
,
0000
0000
0000
0000
,
0001
0000
0010
0000
,
1001
0000
0000
0000
,
0100
0100
0100
0000
,
0010
0000
1000
0000
,
0001
0001
0001
0000
,
1001
0000
0000
0000
,
1000
0000
0100
0100
,
0100
0000
0010
0000
,
0001
0001
0001
0000
,
1000
0000
0000
0000
,
0010
0010
0010
0010
,
0010
0000
1000
0000
,
0001
0001
0001
0000
,
0010
0000
0001
0000
,
1000
1000
1000
0000
,
0100
0100
0100
0000
,
0100
0100
0100
0000
,
0010
0000
0001
0001
,
0001
0001
0001
0001
,
0001
0000
0100
0000
,
0010
0000
0010
0000
,
0100
0000
0001
0001
,
0001
0001
0001
0001
,
0001
0000
0010
0000
,
0100
0000
1000
0000
,
1001
0000
0100
0100
,
0000
0010
0010
0010
,
0000
0000
0001
0000
,
1000
0000
1000
0000
,
1001
0000
0100
0100
,
0000
0010
0010
0010
,
0000
0000
1000
0000
,
0001
0000
0010
0000
,
0110
0000
0100
0100
,
0100
0000
1000
1000
,
1000
0000
0000
0000
,
0010
0000
0010
0000
,
0100
0000
0001
0001
,
0001
0000
1000
1000
,
1000
0000
0010
0000
,
0100
0100
0100
0000
,
0110
0000
0000
0000
,
0001
0001
0001
0001
,
0001
0000
0000
0000
,
0010
0000
0100
0000
,
0110
0000
0000
0000
,
1000
1000
1000
1000
,
1000
0000
0000
0000
,
0010
0000
0010
0000
,
1001
0000
1000
1000
,
0000
0001
0001
0001
,
0000
0000
0100
0000
,
0010
0010
0010
0000
,
1001
0000
0001
0001
,
0000
1000
1000
1000
,
0000
0000
0100
0000
,
0010
0000
0010
0000
,
0001
0000
1000
1000
,
1000
1000
1000
1000
,
1000
0000
0000
0000
,
0001
0000
0000
0000
,
0100
0000
0010
0000
,
0010
0010
0010
0010
,
0010
0000
0000
0000
,
1000
0000
0001
0000
,
1000
0000
0000
0000
,
0001
0000
0000
0000
,
0200
0000
0000
0000
,
0000
0000
0000
0000
0000
0300
0000
0000
;

//---------------dance-single - ----------------
#NOTES:
     dance-single:
     :
     Challenge:
     12:
     0.768672,0.982244,0.153526,0.029243,0.884600,711.000000,21.000000,4.000000,0.000000,0.000000,0.000000,0.768672,0.982244,0.153526,0.029243,0.884600,711.000000,21.000000,4.000000,0.000000,0.000000,0.000000:
0000
0000
0000
0000
,
0000
0000
0000
0000
,
0000
0000
0000
0000
,
0000
0000
0000
0000
,
0001
0010
0100
1000
0001
0000
0001
0000
1000
0100
0010
0001
1000
0000
1000
0000
,
0010
0000
0100
0100
0001
0100
0010
1000
,
0100
0000
0010
0000
0001
0000
1000
0000
0010
0100
0010
0100
0001
0000
0000
0000
,
0100
0000
0001
0010
0100
0010
0001
1000
,
0010
0000
1000
0100
1000
0000
0001
0000
1000
0010
1000
0010
0100
0000
0000
0000
,
0001
0000
0100
0010
0100
0001
0010
0100
,
1000
0001
1000
0000
0010
0000
0100
0000
0001
0010
0001
0010
0001
0000
0000
0000
,
0100
0000
0010
0100
0001
0010
0100
1000
,
0001
1000
0001
1000
0001
1000
0001
0000
1000
0000
0010
0100
0010
0000
0100
0000
,
0001
0000
1000
0100
0010
0001
1000
1010
,
0001
0000
0011
0000
1000
0000
1010
0000
0001
0000
0100
0010
1000
0000
0000
0000
,
0001
0000
1000
0100
0010
0001
1000
0001
,
0100
0010
0100
0000
0001
0000
0010
0000
0100
1000
0100
1000
0001
0000
0000
0000
,
1000
0000
0000
0000
0010
0000
0100
0000
0001
0000
1000
0000
0010
0000
1000
0001
,
1000
0000
0010
0000
0100
0000
0001
0000
1000
0100
0010
0001
1000
0000
0000
0000
,
0010
0000
1000
0001
1000
0010
0100
0001
,
1000
0000
0010
0100
0010
0000
1000
0000
0001
0010
0001
0010
0001
0000
1000
0000
,
0010
0000
0000
0000
0100
0000
0001
0000
1000
0100
1000
0100
0010
0001
0010
0001
,
0100
0010
0100
0010
1000
0001
1000
0001
0010
0100
0010
0100
0010
0100
0010
0100
,
1000
0000
0001
0100
0010
1000
0100
0010
,
0001
0000
1000
0010
0100
0001
1000
0100
,
1001
0000
0000
0000
0010
0000
1000
0000
0001
0010
0001
0010
0100
1000
0100
1000
,
0010
0100
0010
0100
0001
1000
0001
1000
0100
0010
0100
0010
0100
0010
0100
0010
,
0001
0000
0001
1000
0000
1000
0010
0000
0100
0000
0100
0010
0000
0010
1000
0000
,
0001
0000
0000
0000
0000
0000
0000
0000
0000
0000
0000
0000
0000
0000
0000
0000
0000
0000
0000
0000
0000
0000
0000
0000
1000
0000
0000
0000
0000
0000
0000
0000
0000
0000
0000
0000
0100
0000
0000
0000
0000
0000
0000
0000
0000
0000
0000
0000
0010
0000
0000
0000
0000
0000
0000
0000
0000
0000
0000
0000
0000
0000
0000
0000
0000
0000
0000
0000
0000
0000
0000
0000
0001
0000
0000
0000
0000
0000
0000
0000
0000
0000
0000
0000
0000
0000
0000
0000
0000
0000
0000
0000
0000
0000
0000
0000
1000
0000
0000
0000
0000
0000
0100
0000
0000
0000
0000
0000
1000
0000
0000
0000
0000
0000
0100
0000
0000
0000
0000
0000
1000
0000
0000
0000
0000
0000
0100
0000
0000
0000
0000
0000
1000
0000
0000
0000
0000
0000
0100
0000
0000
0000
0000
0000
1000
0000
0000
0000
0000
0000
0000
0000
0000
0000
0000
0000
0000
0000
0000
0000
0010
0000
0000
0000
0000
0000
0000
0000
0000
0000
0000
0000
0000
0000
0000
0000
0100
0000
0000
0000
0000
0000
0000
0000
0000
0000
0000
0000
0000
0000
0000
0000
,
0101
0000
0000
0000
0001
0100
0010
1000
0100
0010
0001
1000
0001
0000
0000
0000
,
1000
0000
0000
0000
0010
1000
0100
0010
0001
1000
0010
0100
0001
0000
0000
0000
,
1000
0000
0100
0010
0001
1000
0010
0100
,
0001
0000
1000
0100
0010
0000
0001
0000
1000
0000
0010
0000
0100
0000
0000
0000
,
1001
0000
0000
0000
1000
0010
0100
0001
0010
0100
1000
0001
1000
0000
0000
0000
,
0001
0000
0000
0000
0100
0001
0010
0100
1000
0001
0100
0010
1000
0000
0000
0000
,
0001
0000
0010
0100
1000
0001
0100
0010
,
1000
0000
0001
0010
0100
0000
1000
0000
0001
0000
0100
0000
0010
0000
0100
0000
,
0101
0000
1000
0100
1000
0010
0100
0001
0010
0100
0010
0001
1000
0010
0100
0001
,
0010
0000
0100
0000
0010
0000
0001
0000
1000
0000
0010
0000
0100
0000
0001
0000
0010
0000
0100
0000
1000
0000
0001
0000
0100
0010
0100
0010
0100
0010
0100
0010
,
1000
0000
0001
0100
1000
0001
0010
1000
,
0001
0000
1000
0100
0001
1000
0010
0001
,
1000
0000
0001
0010
0001
0100
0010
1000
0100
0010
0100
1000
0001
0100
0010
1000
,
0100
0000
0010
0000
0100
0000
1000
0000
0001
0000
0100
0000
0010
0000
1000
0000
0100
0000
0010
0000
0001
0000
1000
0000
0010
0100
0010
0100
0010
0100
0010
0100
,
0001
0000
1000
0010
0001
1000
0100
0001
,
1000
0000
0001
0010
1000
0001
0100
1000
,
0001
0000
0100
0010
0110
0100
0001
0010
,
0100
0000
1100
0010
0101
0000
1100
0000
,
1001
1000
0010
0100
0000
0000
0000
0000
,
0101
0000
0000
0000
1100
0000
0000
0000
1001
0000
0010
0100
0010
0000
1000
0000
,
0001
0000
1000
0000
0100
0010
0001
1000
,
0001
0000
0110
0101
1001
1100
1001
0000
,
0010
0000
0100
0001
1001
1000
0100
0000
,
1000
0000
0000
0000
0000
0000
0000
0000
0000
0000
0000
0000
0001
0000
0000
0000
0000
0000
0000
0000
0000
0000
0000
0000
1000
0000
0000
0000
0000
0000
0000
0000
0000
0000
0000
0000
0000
0000
0000
0000
0000
0000
0000
0000
0000
0000
0000
0000
0010
0000
0000
0000
0000
0000
0000
0000
0000
0000
0000
0000
0100
0000
0000
0000
0000
0000
0000
0000
0000
0000
0000
0000
0010
0000
0000
0000
0000
0000
0000
0000
0000
0000
0000
0000
0000
0000
0000
0000
0000
0000
0000
0000
0000
0000
0000
0000
1000
0000
0000
0000
0000
0000
0001
0000
0000
0000
0000
0000
1000
0000
0000
0000
0000
0000
0001
0000
0000
0000
0000
0000
1000
0000
0000
0000
0000
0000
0001
0000
0000
0000
0000
0000
1000
0000
0000
0000
0000
0000
0001
0000
0000
0000
0000
0000
1000
0000
0000
0000
0000
0000
0000
0000
0000
0000
0000
0000
0000
0000
0000
0000
0010
0000
0000
0000
0000
0000
0000
0000
0000
0000
0000
0000
0000
0000
0000
0000
0100
0000
0000
0000
0000
0000
0000
0000
0000
0000
0000
0000
0000
0000
0000
0000
,
0001
1000
0100
1000
0010
0100
0001
0010
0100
0010
0001
1000
0010
0100
0001
0010
,
0100
0000
1000
0000
0001
0000
1000
0000
0010
0000
0100
0000
0001
0000
0010
0000
0100
0000
1000
0000
0001
0000
0100
0000
0010
1000
0010
1000
0010
1000
0010
1000
,
0001
0000
0000
0000
0100
0000
0010
1000
0001
0000
0010
0000
0100
0000
1000
0000
,
0001
0000
0000
0000
1000
0000
0100
0000
0010
0000
0000
0000
0001
0000
0000
0000
1000
0000
0000
0000
0010
0000
0000
0000
0100
0001
0100
0001
0100
0001
0100
0001
,
1000
0001
0010
0001
0100
0010
1000
0100
0010
0100
1000
0001
0100
0010
1000
0100
,
0010
0000
0001
0000
1000
0000
0001
0000
0100
0000
0010
0000
1000
0000
0100
0000
0010
0000
0001
0000
1000
0000
0010
0000
0100
0001
0100
0001
0100
0001
0100
0001
,
1000
0000
0000
0000
0010
0000
0100
0001
1000
0000
0100
0000
0010
0000
0001
0000
,
1000
0000
0000
0000
0001
0000
0010
0000
0100
0000
0000
0000
1000
0000
0000
0000
0001
0000
0000
0000
0100
0000
0000
0000
0010
1000
0010
1000
0010
1000
0010
1000
,
0001
0000
0000
0000
1000
0100
1000
0100
0010
0001
0010
0001
1000
0010
1000
0010
,
0100
0000
0001
0000
0100
0000
0001
0000
1000
0000
0100
0000
1000
0000
0100
0000
0010
0000
0001
0000
0010
0000
0001
0000
1000
0100
0010
0001
1000
0100
0010
0001
,
1000
0000
0000
0000
0010
0000
0100
0001
1000
0000
0001
0000
0010
0100
1000
0000
,
0001
0000
0000
0000
1000
0000
0010
0000
0100
0000
0000
0000
0001
0000
0000
0000
1000
0000
0100
0000
0010
0000
0000
0000
0100
1000
0100
1000
0100
1000
0100
1000
,
0001
0000
0000
0000
0001
0010
0001
0010
0100
1000
0100
1000
0001
0100
0001
0100
,
0010
0000
1000
0000
0010
0000
1000
0000
0001
0000
0010
0000
0001
0000
0010
0000
0100
0000
1000
0000
0100
0000
1000
0000
0001
0010
0100
1000
0001
0010
0100
1000
,
0001
0000
0000
0000
0100
0000
0010
1000
0001
0000
1000
0000
0100
0010
0001
0000
,
1000
0000
0000
0000
0001
0000
0100
0000
0010
0000
0000
0000
1000
0000
0000
0000
0001
0000
0010
0000
0100
0000
0000
0000
0010
0001
0010
0001
0010
0001
0010
0001
,
1000
0000
0000
0010
0100
0000
0001
0000
,
0020
0000
0000
0230
0000
0000
2300
0000
,
0020
0000
0000
0000
,
0000
0000
0000
0000
0000
3030
0000
0000
;

//---------------dance-double - ----------------
#NOTES:
     dance-double:
     :
     Challenge:
     9:
     0.554572,0.622875,0.095040,0.116972,0.215667,502.000000,13.000000,16.000000,0.000000,0.000000,0.000000,0.554572,0.622875,0.095040,0.116972,0.215667,502.000000,13.000000,16.000000,0.000000,0.000000,0.000000:
// measure 0
00000000
00000000
00000000
00000000
,  // measure 1
00000000
00000000
00000000
00000000
,  // measure 2
00000000
00000000
00000000
00000000
,  // measure 3
00000000
00000000
00000000
00000000
,  // measure 4
10000000
01000000
00000000
01000000
00100000
00000000
00010000
00000000
10000000
00100000
00000000
00100000
01000000
00000000
00010000
00000000
,  // measure 5
10000000
00000000
00100000
00000000
01000000
00010000
10000000
00000000
,  // measure 6
01000000
10000000
00100000
01000000
00010000
00100000
00001000
00000000
,  // measure 7
00010000
00000000
00000010
00001000
00000100
00000100
00001000
00000010
,  // measure 8
00000100
00000100
00000001
00001000
00000100
00000010
00000001
00000000
,  // measure 9
00001000
00000000
00000001
00000000
00000100
00000010
00001000
00000000
,  // measure 10
00000001
00000010
00000100
00001000
00000100
00010000
00001000
00000000
,  // measure 11
00000100
00000000
00000001
00000000
00001000
00000100
00000010
00000000
,  // measure 12
00000001
00001000
00000010
00010000
00001000
00100000
00020000
00000000
,  // measure 13
10030000
00000000
00100000
00000000
01000000
00010000
10000000
01000000
,  // measure 14
01000000
00100000
00010000
01000000
01000000
00100000
20000000
00000000
,  // measure 15
30010000
00000000
10000000
00000000
01000000
00010000
00001000
00000000
,  // measure 16
00000100
00000001
00000100
00000001
00001000
00000100
00000010
00000000
,  // measure 17
00001001
00000000
00000010
00000000
00001000
00000010
00000100
00000001
,  // measure 18
00000001
00000010
00000001
00001000
00001000
00000100
00001000
00000000
,  // measure 19
00001010
00000000
00000101
00000000
00001000
00000100
00001000
00000000
,  // measure 20
00000001
00000000
00000100
00000000
00001000
00000000
00010000
00000000
01000000
00000000
10000000
01000000
10000000
00000000
00000000
00000000
,  // measure 21
00010000
00000000
01000000
00000000
00100000
00000000
10000000
00000000
01000000
00100000
00000000
00000000
00100000
00010000
00000000
00000000
,  // measure 22
00010000
01000000
00000000
00000000
01000000
00100000
00000000
00000000
00100000
00000000
10000000
00000000
01000000
00000000
00100000
00000000
,  // measure 23
00010000
00000000
10000000
10000000
01000000
00010000
00001000
00000100
,  // measure 24
00000001
00000000
00001000
00001000
00000100
00000010
00000001
00001000
,  // measure 25
00001000
00000000
00000010
00000000
00000100
00000000
00000001
00000000
00000010
00000100
00000000
00000000
00000100
00001000
00000000
00000000
,  // measure 26
00001000
00000010
00000000
00000000
00000010
00000100
00000000
00000000
00000100
00000000
00000001
00000000
00000010
00000000
00000100
00000000
,  // measure 27
00001000
00000000
00000000
00000001
00000000
00000000
00000100
00000000
00001000
00000000
00000000
00010000
00000000
00000000
01000000
00000000
,  // measure 28
10000000
00000000
00010000
01000000
00010000
00000000
10000000
00000000
00100000
01000000
00100000
01000000
00100000
00000000
01000000
00000000
,  // measure 29
00010000
10000000
01000000
00100000
00010000
10000000
00100000
00010000
,  // measure 30
00001000
00000000
00000010
00000000
00000001
00000000
00001000
00000000
00000010
00000100
00000010
00000100
00000001
00000000
00000000
00000000
,  // measure 31
00001000
00000000
00000000
00000000
00000001
00000000
00001000
00000100
00001000
00000000
00000010
00000000
00000100
00000000
00000001
00000000
,  // measure 32
00001000
00001000
00000100
00000010
00000001
00001000
00010100
00000000
,  // measure 33
00011000
00000000
00010000
00001000
00100000
00100000
00020000
00000000
,  // measure 34
10030000
00000000
00100000
10000000
00010000
00010000
00200000
00000000
,  // measure 35
00301000
00000000
00010000
00001000
00000010
00000010
00000001
00000100
,  // measure 36
00000010
00000000
00001000
00000100
00001000
00000000
00000010
00000000
00000100
00000000
00000001
00000000
00001000
00000001
00001000
00000001
,  // measure 37
00000100
00000010
00001000
00000100
00010000
00001000
00100000
00010000
,  // measure 38
10000000
00000000
00100000
00000000
00010000
00000000
00100000
00000000
10000000
00000000
01000000
00000000
10000000
00010000
10000000
00010000
,  // measure 39
01000000
00000000
00000000
00000000
00100000
00000000
10000000
01000000
10000000
00000000
01000000
00000000
00100000
00000000
00010000
00000000
,  // measure 40
01000000
00100000
00010000
00001000
00000010
00000001
00001000
00000100
,  // measure 41
00020000
00000000
00031000
00010000
00100000
10000000
01000000
00100000
,  // measure 42
00010000
00000000
10000000
00000000
00100000
00000000
00010000
00000000
00100000
00000000
10000000
00000000
00010000
01000000
00010000
01000000
,  // measure 43
00100000
00000000
00000000
00000000
10000000
00000000
00010000
01000000
00010000
00000000
10000000
00000000
01000000
00000000
00100000
00000000
,  // measure 44
00010000
01000000
00100000
00010000
00001000
00010000
00001000
00000010
,  // measure 45
00000002
00000000
00000000
00000000
00001003
00000100
00000010
00000001
,  // measure 46
00001000
00001001
00001100
00000011
,  // measure 47
00001000
00001000
00000010
00020000
00000000
00000000
00000000
00031000
,  // measure 48
00011000
00000000
00101000
00000000
00010010
00001010
00001000
00000100
,  // measure 49
00020000
00000000
00000000
00000000
00031000
00010000
00100000
10000000
,  // measure 50
00010000
00000000
10000000
10000000
00010000
00010000
01000000
00000000
,  // measure 51
00100000
00000000
00000000
01000000
10010000
01000000
00000000
00000000
,  // measure 52
00100000
10000000
00100000
00000000
10000000
01000000
10000000
00000000
00010000
01000000
00010000
01000000
00010000
00000000
01000000
00000000
,  // measure 53
00100000
10000000
01000000
00100000
00010000
01000000
00100000
10000000
,  // measure 54
00010000
00000000
00100000
00000000
00001000
00000000
00010000
00000000
00000010
00000000
00001000
00000000
00000100
00000010
00000100
00000010
,  // measure 55
00000001
00000000
00000000
00000000
00001000
00000000
00000100
00001000
00000100
00000000
00001000
00000000
00000001
00000000
00000100
00000000
,  // measure 56
00000010
00000000
00001000
00000000
00000001
00000000
00000010
00000000
00000100
00000000
00001000
00000000
00000010
00000100
00000010
00000100
,  // measure 57
00000001
00001000
00000100
00000010
00000001
00001000
00000010
00010000
,  // measure 58
00001000
00000000
00000010
00000000
00001000
00000000
00010000
00000000
00100000
00000000
10000000
00000000
00010000
01000000
00010000
01000000
,  // measure 59
00100000
00000000
00000000
00000000
10000000
00000000
01000000
00100000
01000000
00000000
10000000
00000000
00100000
00000000
01000000
00000000
,  // measure 60
00010000
00000000
10000000
00000000
01000000
00000000
00100000
00000000
00010000
00000000
10000000
00000000
00100000
01000000
00100000
01000000
,  // measure 61
00010000
00000000
10000000
01000000
10000000
00000000
00010000
01000000
00010000
00000000
10000000
00000000
01000000
00000000
00100000
00000000
,  // measure 62
00010000
00000000
10000000
00100000
10000000
00000000
00010000
00100000
00010000
00000000
10000000
00000000
00100000
01000000
00100000
01000000
,  // measure 63
00010000
00000000
10000000
01000000
00010000
00001000
00000100
00000001
,  // measure 64
00002000
00000000
00003001
00000100
00000010
00001000
00000001
00000010
,  // measure 65
00000001
00000000
00001000
00000100
00001000
00000000
00000001
00000100
00000001
00000000
00001000
00000010
00001000
00000000
00000001
00000010
,  // measure 66
00000001
00000000
00001000
00000000
00000100
00000000
00000010
00000000
00000001
00000000
00001000
00000000
00000010
00010000
00000010
00010000
,  // measure 67
00002000
00203000
00320000
20030000
,  // measure 68
30100000
00000000
01000000
00010000
01000000
00000000
00100000
00000000
10000000
00000000
01000000
00100000
00000000
00100000
00010000
00000000
,  // measure 69
10000000
00000000
00000000
00100000
00100000
00000000
00010000
00000000
,  // measure 70
00002000
00000000
00000000
00003020
00000000
00000000
00000032
00000000
,  // measure 71
00001003
00000000
00000000
00000000
;
