#VERSION:0.82;
#TITLE:Cool Kids;
#SUBTITLE:;
#ARTIST:Echosmith;
#TITLETRANSLIT:;
#SUBTITLETRANSLIT:;
#ARTISTTRANSLIT:;
#GENRE:Pop For Fitting In;
#ORIGIN:;
#CREDIT:;
#BANNER:Cool Kids.png;
#BACKGROUND:Cool Kids-bg.png;
#PREVIEWVID:;
#JACKET:jacket.png;
#CDIMAGE:;
#DISCIMAGE:;
#LYRICSPATH:;
#CDTITLE:;
#MUSIC:Cool Kids.ogg;
#OFFSET:0.010000;
#SAMPLESTART:88.683929;
#SAMPLELENGTH:13.714000;
#SELECTABLE:YES;
#BPMS:0.000=130.000;
#STOPS:;
#DELAYS:;
#WARPS:;
#TIMESIGNATURES:0.000=4=4;
#TICKCOUNTS:0.000=4;
#COMBOS:0.000=1;
#SPEEDS:0.000=1.000=0.000=0;
#SCROLLS:0.000=1.000;
#FAKES:;
#LABELS:0.000=Song Start;
#BGCHANGES:0.000=Cool Kids.avi=1.000=0=0=1=====,
99999=-nosongbg-=1.000=0=0=0 // don't automatically add -songbackground-
;
#KEYSOUNDS:;
#ATTACKS:
;

//---------------dance-single - ----------------
#NOTEDATA:;
#CHARTNAME:;
#STEPSTYPE:dance-single;
#DESCRIPTION:;
#CHARTSTYLE:;
#DIFFICULTY:Hard;
#METER:7;
#RADARVALUES:0.391672,0.453531,0.188800,0.172383,0.000000,290.000000,23.000000,21.000000,0.000000,0.000000,0.000000,0.000000,0.000000,0.391672,0.453531,0.188800,0.172383,0.000000,290.000000,23.000000,21.000000,0.000000,0.000000,0.000000,0.000000,0.000000;
#CREDIT:Ben Speirs;
#NOTES:
// measure 0
0000
0000
0000
0000
,  // measure 1
0000
0000
0000
0000
,  // measure 2
0000
0000
0000
0000
,  // measure 3
0000
0000
0000
0000
,  // measure 4
0002
2003
3020
0230
,  // measure 5
0301
0000
1000
0000
0001
0010
0100
0000
,  // measure 6
2000
0100
0010
3001
,  // measure 7
0002
0010
0100
1003
,  // measure 8
0010
1000
0100
1000
0002
0000
2003
0000
,  // measure 9
3010
0000
1000
0100
0010
0001
1000
0000
,  // measure 10
0001
0100
0010
0000
0000
0000
1000
0010
,  // measure 11
0001
0010
1000
0000
0000
0000
1000
0010
,  // measure 12
0100
0001
0010
0001
2000
0000
3002
0000
,  // measure 13
0103
0000
0001
0010
0100
1000
0001
0000
,  // measure 14
1000
0010
0100
0000
0000
0000
0001
0100
,  // measure 15
1000
0100
0001
0000
0000
0000
1000
0001
,  // measure 16
0100
0100
0010
0100
0100
0001
1000
0000
,  // measure 17
0001
0000
1000
0100
0010
0001
1000
0000
,  // measure 18
0010
0010
1000
0010
0010
0100
0001
0000
,  // measure 19
1000
0100
1000
0000
0001
0100
0001
0000
,  // measure 20
1000
1000
0001
0100
0100
0001
1000
0000
,  // measure 21
0100
0010
0001
0100
0010
1000
0001
0000
,  // measure 22
2100
0000
3010
0000
1000
0100
0010
0000
,  // measure 23
0001
1000
0010
0100
0110
0000
1001
0000
,  // measure 24
0100
0001
0010
0100
1000
0000
0001
0000
,  // measure 25
0010
0100
0010
0100
1000
0001
0100
0000
,  // measure 26
0010
1000
0100
1000
0001
0000
0100
0000
,  // measure 27
0010
1000
0010
1000
0001
0100
0010
0000
,  // measure 28
1000
0100
1000
0001
0100
0000
0001
0000
,  // measure 29
0010
0100
0010
0100
1000
0001
0100
0000
,  // measure 30
0010
0000
1000
0001
0100
0000
0102
0000
,  // measure 31
1003
0000
0000
0000
0100
1000
0001
0000
,  // measure 32
0010
1000
0100
0001
,  // measure 33
0000
0000
0000
0000
0100
0001
1000
0000
,  // measure 34
0010
0000
0000
0000
,  // measure 35
0000
0000
0000
0000
,  // measure 36
1000
0010
0001
0100
,  // measure 37
0000
0000
0000
0000
0001
0100
1000
0000
,  // measure 38
0010
0000
0000
0000
,  // measure 39
1000
0000
0001
0000
,  // measure 40
0100
0000
0101
0000
1100
0000
0000
0001
,  // measure 41
0001
0000
0000
0000
1000
0100
0010
0000
,  // measure 42
0001
1100
0101
0000
,  // measure 43
0000
0000
0000
1000
1000
0000
0001
0000
,  // measure 44
0110
0000
1001
0110
,  // measure 45
0000
0000
0000
1000
1000
0100
0001
0000
,  // measure 46
0010
0000
0000
0001
0001
0000
1000
0000
,  // measure 47
0010
0000
0000
0000
1000
0100
0010
0000
,  // measure 48
1001
0100
1000
0001
0100
0000
0001
0000
,  // measure 49
0010
0100
0010
0100
1000
0001
0100
0000
,  // measure 50
0010
1000
0100
1000
0001
0000
1000
0000
,  // measure 51
0001
0100
0001
0100
0010
1000
0001
0000
,  // measure 52
1000
0100
1000
0001
0010
0000
0001
0000
,  // measure 53
1000
0010
1000
0010
0100
0001
1000
0000
,  // measure 54
0001
0000
0010
0100
1000
0000
1002
0000
,  // measure 55
0103
0000
0000
0000
1000
0001
0100
0000
,  // measure 56
1010
1001
0101
2001
,  // measure 57
3100
0000
0001
0000
1000
0100
0010
0000
,  // measure 58
1002
0010
0100
1003
,  // measure 59
2000
0100
0010
3001
,  // measure 60
1010
0101
0011
2100
,  // measure 61
3001
0000
1000
0000
0010
1000
0001
0000
,  // measure 62
0210
0001
0010
1300
,  // measure 63
0200
1000
0010
0302
,  // measure 64
2000
0000
0000
0000
,  // measure 65
3003
0000
0000
0000
;

//---------------dance-single - ----------------
#NOTEDATA:;
#CHARTNAME:;
#STEPSTYPE:dance-single;
#DESCRIPTION:;
#CHARTSTYLE:;
#DIFFICULTY:Medium;
#METER:4;
#RADARVALUES:0.261506,0.341482,0.106713,0.057461,0.000000,203.000000,13.000000,7.000000,0.000000,0.000000,0.000000,0.000000,0.000000,0.261506,0.341482,0.106713,0.057461,0.000000,203.000000,13.000000,7.000000,0.000000,0.000000,0.000000,0.000000,0.000000;
#CREDIT:Ben Speirs;
#NOTES:
0000
0000
0000
0000
,
0000
0000
0000
0000
,
0000
0000
0000
0000
,
0000
0000
0000
0000
,
0002
0103
2000
3100
,
0000
0000
0000
0000
1000
0001
1000
0000
,
0020
0100
0000
0130
,
0000
0100
0001
1000
,
0100
1000
0000
0010
,
1000
0001
0000
0100
,
0001
1000
0000
0100
,
1000
0010
0000
1000
,
0001
0010
0000
0001
,
0100
0010
0000
0100
,
0001
1000
0000
0100
,
0010
0001
0000
1000
,
0010
0100
0000
0100
0010
0000
1000
0000
,
0000
0000
0001
0000
1000
0100
1000
0000
,
0001
0100
0010
1000
,
0001
1000
0100
0000
,
0010
0100
0000
0100
0010
0000
0001
0000
,
0000
0000
1000
0000
0001
0100
0010
0000
,
1000
0001
0100
0010
,
0100
0001
0101
1100
,
0000
0001
0001
0000
1000
0000
0001
0000
,
0100
0010
0000
0010
0100
0000
0001
0000
,
0000
1000
1000
0000
0001
0000
1000
0000
,
0100
0010
0000
0010
0100
0000
1000
0000
,
0000
0010
0010
0000
1000
0000
0001
0000
,
0100
0001
0000
0001
1000
0000
0100
0000
,
0000
0010
0001
1000
,
0010
0000
1000
0001
,
2002
0000
0000
0000
,
3003
0000
0000
0000
,
0010
0000
0000
0000
,
0000
0000
0000
0000
,
1000
0100
0001
1000
,
0000
0000
0000
0000
0100
0010
0001
0000
,
1000
0000
0000
0000
,
0010
0000
0000
0000
,
1000
0001
0100
0010
,
1000
0000
0001
0000
0010
0100
1000
0000
,
0001
1000
1000
0010
,
1000
0000
0001
0000
1000
0100
0010
0000
,
0001
1000
0010
0010
,
1000
0000
0001
0010
0010
0001
1000
0000
,
0100
0010
0001
1000
,
0010
1000
1001
1001
,
0000
0010
0010
0000
0001
0000
1000
0000
,
0100
0010
0000
0010
0100
0000
1000
0000
,
0000
0010
0010
0000
1000
0000
0001
0000
,
0010
0001
0000
0001
0010
0000
0001
0000
,
0000
0100
0100
0000
0001
0000
1000
0000
,
0100
0010
0000
0010
0100
0000
1000
0000
,
0000
0000
0010
1000
0010
0000
1000
0000
,
0001
0000
0100
0000
,
0101
1100
0101
1100
,
0000
0000
0000
0000
0001
1000
0100
0000
,
0020
0030
0000
0000
,
0001
0000
1000
0000
,
1010
0011
1010
0011
,
0000
0000
0000
0000
1000
0001
0010
0000
,
0001
0000
1000
0000
,
0020
0000
0000
0000
,
0030
0000
0000
0000
;

//---------------dance-single - ----------------
#NOTEDATA:;
#CHARTNAME:;
#STEPSTYPE:dance-single;
#DESCRIPTION:;
#CHARTSTYLE:;
#DIFFICULTY:Easy;
#METER:3;
#RADARVALUES:0.151275,0.210143,0.008209,0.065670,0.000000,120.000000,1.000000,8.000000,0.000000,0.000000,0.000000,0.000000,0.000000,0.151275,0.210143,0.008209,0.065670,0.000000,120.000000,1.000000,8.000000,0.000000,0.000000,0.000000,0.000000,0.000000;
#CREDIT:Ben Speirs;
#NOTES:
0000
0000
0000
0000
,
0000
0000
0000
0000
,
0000
0000
0000
0000
,
0000
0000
0000
0000
,
1000
1000
0001
0001
,
0000
0000
0100
0010
,
0100
0000
0000
0000
,
0001
0000
1000
0000
,
0100
0100
0000
0000
,
1000
1000
0000
0000
,
0010
0000
0000
0000
,
0010
0000
0000
0000
,
1000
1000
0000
0000
,
0001
0001
0000
0000
,
0100
0000
0000
0000
,
0100
0000
0000
0000
,
0001
0000
1000
0000
,
0010
0000
1000
0100
,
0010
0000
0001
0000
,
1000
1000
1000
0000
,
0010
0000
1000
0000
,
0100
0000
0010
0001
,
0100
0000
0010
0000
,
1000
0000
0001
0001
,
0000
1000
1000
0000
,
0100
0000
0100
0000
,
1000
0010
0010
0000
,
1000
0000
0001
0000
,
0000
0100
0100
0000
,
0010
0000
0010
0000
,
0000
1000
0001
0100
,
0010
0000
0000
0000
,
2000
0000
0000
3000
,
0002
0000
0000
0003
,
0020
0000
0000
0030
,
0200
0000
0000
0300
,
2000
0000
0000
3000
,
0002
0000
0000
0003
,
0200
0000
0000
0300
,
0020
0000
0000
0030
,
1000
1000
0001
0001
,
0000
0000
0100
0001
,
1000
0000
0000
0000
,
0000
0000
0000
0000
,
0001
0001
1000
1000
,
0000
0000
0100
1000
,
0001
0000
0000
0000
,
0000
0000
0100
0100
,
0000
0001
1000
0000
,
0100
0010
0100
0000
,
0000
1000
0001
0000
,
0100
0010
0100
0000
,
0000
0001
0001
0000
,
1000
0010
0100
0001
,
0000
1000
0100
0010
,
0001
0000
0000
0000
,
1000
1000
0001
0001
,
0000
0000
0100
0001
,
1000
0000
0000
0000
,
0100
0000
0000
0000
,
1000
1000
0001
0001
,
0000
0000
0010
0001
,
1000
0000
0000
0000
,
0010
0000
1000
0000
,
1001
0000
0000
0000
;

//---------------dance-single - ----------------
#NOTEDATA:;
#CHARTNAME:;
#STEPSTYPE:dance-single;
#DESCRIPTION:;
#CHARTSTYLE:;
#DIFFICULTY:Beginner;
#METER:1;
#RADARVALUES:0.110231,0.157607,0.032835,0.000000,0.000000,90.000000,4.000000,0.000000,0.000000,0.000000,0.000000,0.000000,0.000000,0.110231,0.157607,0.032835,0.000000,0.000000,90.000000,4.000000,0.000000,0.000000,0.000000,0.000000,0.000000,0.000000;
#CREDIT:Ben Speirs;
#NOTES:
0000
0000
0000
0000
,
0000
0000
0000
0000
,
0000
0000
0000
0000
,
0000
0000
0000
0000
,
1000
0000
0010
0010
,
0000
0000
1000
0000
,
0001
0000
0000
0000
,
0100
0000
0000
0000
,
1001
0000
0000
0000
,
0010
0000
0000
0000
,
0001
0000
0000
0000
,
1000
0000
0000
0000
,
0010
0000
0000
0000
,
1000
0000
0000
0000
,
0001
0000
0000
0000
,
0100
0000
0000
0000
,
0010
0000
0010
0000
,
0000
0000
1000
1000
,
1000
0000
0000
0000
,
0100
0000
0000
0000
,
0010
0000
0010
0000
,
0000
0000
0001
0001
,
0001
0000
0000
0000
,
1000
0000
0010
0000
,
0110
0000
0000
0000
,
1000
0000
0001
0000
,
0100
0000
0000
0000
,
0001
0000
0010
0000
,
0100
0000
0000
0000
,
1000
0000
0010
0000
,
1000
0000
0001
0000
,
0100
0000
0000
0000
,
1001
0000
0000
0000
,
0000
0000
0000
0000
,
0000
0000
0000
0000
,
0000
0000
0000
0000
,
1000
0000
0001
0001
,
0000
0000
0100
0100
,
0100
0000
0000
0000
,
0000
0000
0000
0000
,
0001
0000
1000
1000
,
0000
0000
0010
0010
,
0010
0000
0000
0000
,
0000
0000
0000
0000
,
1000
0000
0100
0100
,
0000
0000
0010
0010
,
0010
0000
0001
0000
,
1000
0000
0001
0001
,
0000
0100
0100
0000
,
0010
0000
0010
0000
,
0000
1000
1000
0000
,
0001
0000
0001
0000
,
0000
0010
0010
0000
,
0100
0000
0100
0000
,
0000
1000
1000
0000
,
1000
0000
0001
0000
,
0100
0000
0000
0000
,
0010
0000
1000
0000
,
0001
0000
0000
0000
,
1000
0000
0000
0000
,
0100
0000
0010
0000
,
0010
0000
0001
0000
,
1000
0000
0000
0000
,
0010
0000
0000
0000
,
1001
0000
0000
0000
;

//---------------dance-double - ----------------
#NOTEDATA:;
#CHARTNAME:;
#STEPSTYPE:dance-double;
#DESCRIPTION:;
#CHARTSTYLE:;
#DIFFICULTY:Challenge;
#METER:7;
#RADARVALUES:0.383463,0.425211,0.246261,0.139548,0.000000,280.000000,30.000000,17.000000,0.000000,0.000000,0.000000,0.000000,0.000000,0.383463,0.425211,0.246261,0.139548,0.000000,280.000000,30.000000,17.000000,0.000000,0.000000,0.000000,0.000000,0.000000;
#CREDIT:Ben Speirs;
#NOTES:
00000000
00000000
00000000
00000000
,
00000000
00000000
00000000
00000000
,
00000000
00000000
00000000
00000000
,
00000000
00000000
00000000
00000000
,
20000000
32000000
03200000
00310000
,
10000000
00000000
00100000
00000000
10000000
00010000
01000000
00000000
,
01020000
10000000
10000000
01030000
,
00010000
00000000
10000000
00000000
01000000
00100000
00010000
00000000
,
00100000
00001000
00010000
00000000
00000000
00000000
00001000
00000000
,
00010000
00000100
00001000
00000000
00000000
00000000
00000010
00000000
,
00000100
00000001
00001000
00000000
00000000
00000000
00000001
00000100
,
00001000
00000100
00000001
00000000
00000000
00000000
00001000
00000000
,
00000001
00000010
00000100
00000000
00000000
00000000
00001000
00000000
,
00000100
00010000
00001000
00000000
00000000
00000000
00100000
00000000
,
00010000
00100000
01000000
00000000
00000000
00000000
10000000
01000000
,
00010000
01000000
10000000
00000000
00000000
00000000
00010000
00000000
,
01000000
00000000
10100000
00100000
01000000
00000000
10010000
00000000
,
01000000
00000000
00010000
10000000
02000000
00000000
03200000
00000000
,
00310000
01000000
00000000
01000000
00100000
00000000
10000000
00000000
,
01000000
00100000
00000000
00100000
00010000
00100000
00001000
00000000
,
00010000
00000000
00010100
00000100
00001000
00000010
00000100
00000000
,
00000001
00000000
00001000
00000000
00000010
00000100
00000001
00000000
,
00001000
00000100
00000000
00000100
00000010
00000000
00000001
00000000
,
00001000
00000010
00000000
00000010
00000100
00000001
00001000
00000000
,
00000101
00000100
00000010
00001000
00000100
00000000
00010100
00000000
,
00001000
00000100
00000001
00001000
00000100
00000010
00000001
00000000
,
00001000
00000010
00000100
00000001
00001000
00000000
00010010
00000000
,
00000010
00001000
00000001
00000010
00000200
00000000
00010300
00000000
,
00001000
00010000
00100000
10000000
01000000
00000000
10010000
00000000
,
10000000
00100000
10000000
00010000
01000000
00000000
10010000
00000000
,
01000000
00000000
00100000
00010000
02000000
00000000
03002000
00000000
,
00023000
00000000
00130000
00000000
10000000
00100000
01000000
00000000
,
01010000
00100000
10000000
01000000
,
00000000
00000000
00000000
00000000
00100000
00010000
10000000
00000000
,
01000000
00000000
00000000
00000000
,
00000000
00000000
00000000
00000000
,
10000000
01000000
00010000
00001000
,
00000000
00000000
00000000
00000000
00100000
00001000
00100000
00000000
,
00001000
00000000
00000000
00000000
,
00000000
00000000
00000000
00000000
,
00010000
00000000
00001000
00000000
00000100
00000000
00000000
00000001
,
00000001
00000000
00000000
00000000
00001000
00000100
00000010
00000000
,
00000001
00000011
00001010
00000000
,
00000100
00000000
00000000
00001000
00001000
00000001
00000010
00000000
,
00000011
00000000
00001010
00000101
,
00000000
00000000
00000000
00000001
00000001
00001000
00000100
00000000
,
00010000
00000000
00000000
00001000
00001000
00000000
00000000
00100000
,
00100000
00010000
10000000
00100000
01000000
00010000
10000000
00000000
,
10100000
00100000
01000000
00010000
00100000
00000000
00101000
00000000
,
00010000
00100000
10000000
00010000
00100000
01000000
10000000
00000000
,
00010000
01000000
00100000
10000000
00010000
00000000
01001000
00000000
,
01000000
00010000
10000000
01000000
00200000
00000000
00301000
00000000
,
00010000
00001000
00000100
00000001
00000010
00000000
00001001
00000000
,
00000001
00000100
00000001
00001000
00000010
00000000
00001001
00000000
,
00000010
00000000
00000100
00001000
00000020
00000000
00020030
00000000
,
00032000
00000000
00003100
00000000
00000001
00000100
00000010
00000000
,
00001010
00010010
00011000
00110000
,
10000000
00000000
00010000
00000000
01000000
00100000
10000000
00000000
,
01020000
10000000
10000000
01030000
,
00010000
00000000
10000000
00000000
01000000
00100000
00010000
00000000
,
00110000
00101000
00011000
00001010
,
00000001
00000000
00001000
00000000
00000010
00000100
00000001
00000000
,
00002010
00000001
00000100
00003100
,
00000001
00000000
00001000
00000000
00000100
00010000
00001000
00100000
,
00020000
10000000
01000000
00130000
;
