#TITLE:Tik Tok;
#SUBTITLE:;
#ARTIST:Ke$ha;
#TITLETRANSLIT:;
#SUBTITLETRANSLIT:;
#ARTISTTRANSLIT:;
#GENRE:;
#CREDIT:;
#BANNER:Tik Tok.png;
#BACKGROUND:Tik Tok-bg.png;
#LYRICSPATH:;
#CDTITLE:cdtitle.png;
#MUSIC:Tik Tok.ogg;
#OFFSET:-0.190000;
#SAMPLESTART:83.643303;
#SAMPLELENGTH:14.339993;
#SELECTABLE:YES;
#DISPLAYBPM:120;
#BPMS:0.000000=120.000000
,57.500000=121.000046
,60.000000=120.000000
;
#STOPS:
;
#BGCHANGES:3.333=Tik Tok.avi=1.000=0=0=1=====,
99999=-nosongbg-=1.000=0=0=0 // don't automatically add -songbackground-
;
#KEYSOUNDS:;
#ATTACKS:;

//---------------dance-single - ----------------
#NOTES:
     dance-single:
     :
     Hard:
     8:
     0.526294,0.581429,0.242262,0.208847,0.213024,387.000000,29.000000,25.000000,0.000000,0.000000,0.000000,0.526294,0.581429,0.242262,0.208847,0.213024,387.000000,29.000000,25.000000,0.000000,0.000000,0.000000:
// measure 0
0000
0000
0000
0000
,  // measure 1
0000
0000
0000
0000
,  // measure 2
0000
0000
0000
0000
,  // measure 3
0000
0000
0000
0000
,  // measure 4
2000
0000
3100
0010
0002
0000
0103
0010
,  // measure 5
1000
0001
1000
0001
0000
1000
0100
0010
,  // measure 6
0002
0000
0103
0010
1000
0001
0002
0000
,  // measure 7
0203
0000
0000
0020
0000
0000
0330
0000
,  // measure 8
0100
0001
0100
0000
0010
0000
1000
0000
1100
0000
0000
0000
0101
0000
0000
0000
,  // measure 9
0001
1000
0001
0000
1000
0000
0100
0000
1100
0000
0000
0000
0011
0000
0000
0000
,  // measure 10
1000
0000
0010
0100
0010
0000
1000
0000
1100
0000
0000
0000
0101
0000
0000
0000
,  // measure 11
1000
0000
0000
0001
0000
0000
0100
0000
0000
0000
0010
0000
0010
0000
0100
0000
,  // measure 12
0001
1000
0001
0000
0100
0000
0010
0000
2000
0000
0100
0000
3200
0000
0000
0000
,  // measure 13
0310
0001
0010
0000
0100
0000
1000
0000
0002
0000
0100
0000
0203
0000
0000
0000
,  // measure 14
0310
1000
0010
1000
0100
0010
0001
0000
0000
0000
0000
0000
0000
0000
0000
0000
,  // measure 15
0000
0000
0000
1000
,  // measure 16
0011
0000
1000
0001
1000
0000
0010
0000
,  // measure 17
0100
0100
0010
1000
0100
0000
1100
0000
,  // measure 18
0011
0000
0100
0001
0100
0000
0001
0001
,  // measure 19
0010
0100
1000
0000
0001
1000
1010
0000
,  // measure 20
0011
0000
0100
0100
0100
0000
0001
0010
,  // measure 21
0100
1000
0010
0100
0001
1000
0001
0000
,  // measure 22
1000
0000
1000
0100
0000
0100
0010
0000
0001
0000
1000
0000
1001
0000
0000
0000
,  // measure 23
0001
0000
0001
0100
0000
0100
0010
0000
1000
0000
0001
0000
1001
0000
0000
0000
,  // measure 24
1000
0100
1000
0000
0010
0000
0100
0000
0001
1000
0001
0000
0100
0000
0010
0000
,  // measure 25
1000
0100
1000
0000
0001
0000
0010
0000
0100
1000
0100
0000
0020
0000
0000
0000
,  // measure 26
0031
0100
0001
0000
1000
0000
0010
0000
0100
0001
0100
0000
0010
0000
1000
0000
,  // measure 27
1000
0000
0001
0000
0002
0000
0000
0000
0103
0000
0010
0000
1000
0100
1000
0100
,  // measure 28
0020
0000
0000
0000
0031
1000
0001
1000
0020
0000
0000
0000
0130
0000
0001
0000
,  // measure 29
1000
1000
0100
0010
0001
1000
1010
0000
,  // measure 30
0001
0000
0100
0001
1000
0000
0001
0000
0100
0000
0000
0000
1001
0000
0000
0000
,  // measure 31
1000
0000
0100
1000
0001
0000
1000
0000
0100
0000
0000
0000
1001
0000
0000
0000
,  // measure 32
0020
0000
0130
0100
0010
0100
0010
1000
,  // measure 33
0200
0000
0310
0010
0100
0010
0100
0010
,  // measure 34
0002
0000
0103
0200
0000
0320
0000
2030
,  // measure 35
0000
3001
0010
0100
1000
0001
0100
0000
,  // measure 36
0010
1000
1010
0000
0001
0010
0011
0000
,  // measure 37
1000
0100
1100
0000
0001
0100
0101
0000
,  // measure 38
0010
0010
1000
1000
0100
0100
0010
0010
,  // measure 39
0001
1000
0001
1000
0010
0100
0001
1000
,  // measure 40
0000
0100
0000
0100
,  // measure 41
0000
0000
0000
0110
,  // measure 42
1001
0000
1000
0100
0010
0000
0001
0000
1000
0000
0001
0100
0010
0000
1000
0000
,  // measure 43
0010
0010
0100
0100
0010
1000
0200
0000
,  // measure 44
0310
0001
1000
0000
0010
0000
0100
0000
0001
0000
1000
0000
0100
0000
1000
0000
,  // measure 45
0001
0100
0001
0100
0020
0000
0000
0000
1030
0000
0100
0000
1100
0000
0000
0000
,  // measure 46
0101
0000
0000
0000
1000
0100
1000
0100
0010
0000
0000
0000
0001
0000
1000
0100
,  // measure 47
1000
0010
0100
0001
1000
1000
0010
0000
,  // measure 48
0100
0000
0001
1000
0001
0000
0100
0000
0010
0000
1000
0000
1100
0000
0000
0000
,  // measure 49
0010
0000
1000
0100
1000
0000
0010
0000
0100
0000
0001
0000
0101
0000
0000
0000
,  // measure 50
0010
1000
0010
1000
0010
0000
1000
0000
0001
0100
0001
0100
0001
0000
0100
0000
,  // measure 51
0010
1000
0100
0100
0010
0001
2000
0000
,  // measure 52
3010
0100
0010
0100
0010
0000
1000
0000
0100
0010
0100
0010
0100
0000
1000
0000
,  // measure 53
1000
0001
0001
0010
0100
1000
0020
0000
,  // measure 54
0130
0001
1000
0000
0100
0000
0010
0000
0001
1000
0010
0000
0100
0000
0001
0000
,  // measure 55
1000
0100
1000
0000
0001
0100
0001
0000
1000
0010
1000
0010
0200
0000
0000
0000
,  // measure 56
0301
0000
0100
0010
0100
0000
0001
0000
1000
0000
0000
0000
1001
0000
0000
0000
,  // measure 57
1000
0000
0100
0010
0100
0000
1000
0000
0001
0000
0000
0000
0101
0000
0000
0000
,  // measure 58
1010
0000
0000
0000
;

//---------------dance-double - ----------------
#NOTES:
     dance-double:
     :
     Challenge:
     8:
     0.474977,0.508751,0.292385,0.208847,0.154547,338.000000,35.000000,25.000000,0.000000,0.000000,0.000000,0.474977,0.508751,0.292385,0.208847,0.154547,338.000000,35.000000,25.000000,0.000000,0.000000,0.000000:
00000000
00000000
00000000
00000000
,
00000000
00000000
00000000
00000000
,
00000000
00000000
00000000
00000000
,
00000000
00000000
00000000
00000000
,
20000000
00000000
31000000
00100000
02000000
00000000
03100000
00010000
,
10000000
00100000
10000000
00100000
00000000
01000000
02000000
00000000
,
03020000
00230000
00302000
00023000
,
00030200
00000000
00000000
00002000
00000000
00000000
00003300
00000000
,
00000001
00001000
00000001
00000000
00001000
00000000
00000010
00000000
00001010
00000000
00000000
00000000
00001001
00000000
00000000
00000000
,
00001000
00000001
00001000
00000000
00000001
00000000
00000010
00000000
00000011
00000000
00000000
00000000
00001001
00000000
00000000
00000000
,
00001000
00000000
00000100
00010000
00000100
00000000
00010000
00000000
00002000
00000000
00000000
00000000
00203000
00000000
00000000
00000000
,
00310000
00000000
00000000
00010000
00000000
00000000
01000000
00000000
00000000
00000000
00100000
00000000
00100000
00000000
10000000
00000000
,
00010000
01000000
00010000
00000000
01000000
00000000
00100000
00000000
10100000
00000000
00000000
00000000
11000000
00000000
00000000
00000000
,
10000000
01000000
10000000
00000000
01000000
00000000
00100000
00000000
00110000
00000000
00000000
00000000
10010000
00000000
00000000
00000000
,
00100000
10000000
00100000
10000000
01000000
00100000
00010000
00000000
00000000
00000000
00000000
00000000
00000000
00000000
00000000
00000000
,
00000000
00000000
00000000
00000000
,
11000000
00000000
00010000
10000000
00010000
00000000
01000000
00000000
,
00100000
10000000
00100000
10000000
01000000
00000000
00200000
00000000
,
00320000
00000000
10030000
01000000
10000000
00000000
00010000
00100000
,
00010000
00100000
00002000
00000000
00013000
00000000
00010100
00000000
,
00011000
00000000
00000100
00001000
00000100
00000000
00001000
00000010
,
00000100
00000010
00001000
00000100
00000010
00000001
00001000
00000000
,
00000001
00000000
00000000
00000001
00000000
00000000
00000001
00000000
00000100
00000000
00000000
00000000
00001010
00000000
00000000
00000000
,
00001000
00000000
00000000
00001000
00000000
00000000
00001000
00000000
00000100
00000000
00000000
00000000
00000011
00000000
00000000
00000000
,
00001000
00000100
00001000
00000000
00000010
00000000
00000100
00000000
00000001
00000000
00001000
00000000
00000100
00000000
00000010
00000000
,
00000001
00001000
00000001
00000000
00000100
00000000
00000010
00000000
00001000
00000000
00000000
00000000
00010100
00000000
00000000
00000000
,
00011000
00000000
00100000
00001000
00100000
00000000
00010000
01000000
,
00100000
10000000
00100000
00000000
01000000
00000000
00010000
00000000
10000000
00000000
01000000
00000000
00200000
00000000
00000000
00000000
,
00320000
00000000
00000000
00000000
10030000
01000000
10000000
01000000
10000000
00000000
00000000
00000000
00100000
00000000
10000000
01000000
,
10000000
00100000
10000000
01000000
00100000
00010000
01000000
00000000
,
00010000
00000000
00010000
00100000
00000000
00000000
00010000
00000000
00100000
00000000
00000000
00000000
00101000
00000000
00000000
00000000
,
00010000
00000000
00010000
00001000
00000000
00000000
00010000
00000000
00000100
00000000
00000000
00000000
00010100
00000000
00000000
00000000
,
00012000
00000000
00103000
00010000
00100000
00010000
00100000
00000000
,
00102000
00000000
00013000
00000100
00010000
00000100
00010000
00000000
,
00001100
00000000
00000010
00000000
00000100
00000000
00000010
00001000
,
00000100
00000000
00000010
00000001
00001000
00000100
00001000
00000000
,
00000010
00001100
00000100
00010100
,
00010000
00011000
00001000
00101000
,
00100000
00110000
00010000
10010000
,
10000000
01000000
00010000
00001000
00000100
00000001
00001000
00000100
,
00000000
00010000
00000000
00010000
,
00000000
00000000
00000000
00000000
,
00011000
00000000
00001000
00010000
00001000
00000000
00100000
00000000
00110000
00000000
00000000
00000000
00010000
00000000
00100000
00000000
,
01000000
10000000
00100000
01000000
00010000
10000000
00200000
00000000
,
01300000
00010000
01000000
00000000
00100000
00000000
10000000
00000000
10100000
00000000
00000000
00000000
11000000
00000000
01000000
00000000
,
00100000
00010000
01000000
00010000
00100000
00001000
00102000
00000000
,
00023000
00000000
00000000
00000000
00030100
00001000
00000100
00001000
00000100
00000000
00000000
00000000
00000010
00000000
00000001
00001000
,
00000001
00000100
00000010
00001000
00000100
00010000
00001000
00000000
,
00011000
00000000
00000000
00010000
00001000
00000000
00010000
00000000
00001000
00000000
00000000
00000000
00101000
00000000
00000000
00000000
,
00001000
00000000
00000000
00010000
00001000
00000000
00010000
00000000
00000100
00000000
00001000
00000000
00000010
00000100
00000010
00000100
,
00000002
00000000
00000103
00000010
00002000
00000000
00003100
00010000
,
00001000
00100000
00010000
01000000
00100000
10000000
01000000
00100000
,
00010000
00000000
10000000
01000000
10000000
00000000
00100000
00000000
01000000
00000000
00000000
00000000
00010000
00000000
10000000
01000000
,
10000000
00000000
00010000
01000000
00010000
00000000
10000000
00000000
01000000
00000000
00100000
00000000
00020000
00000000
00000000
00000000
,
00130000
00000000
00000000
00000000
00001000
00100000
00001000
00100000
00001000
00000000
00000000
00000000
00010000
00000100
00010000
00000100
,
00010000
00000100
00001000
00000010
00000100
00000001
00001000
00000000
,
00000100
00000000
00000100
00010000
00000000
00000000
00001000
00000000
00001000
00000000
00000000
00000000
00101000
00000000
00000000
00000000
,
00010000
00000000
00010000
00100000
00000000
00000000
01000000
00000000
10000000
00000000
00010000
00000000
01020000
00000000
00000000
00000000
,
10030000
00000000
00000000
00000000
;

//---------------dance-single - ----------------
#NOTES:
     dance-single:
     :
     Medium:
     5:
     0.291192,0.339167,0.208847,0.200493,0.000000,195.000000,25.000000,24.000000,0.000000,0.000000,0.000000,0.291192,0.339167,0.208847,0.200493,0.000000,195.000000,25.000000,24.000000,0.000000,0.000000,0.000000:
0000
0000
0000
0000
,
0000
0000
0000
0000
,
0000
0000
0000
0000
,
0000
0000
0000
0000
,
0002
0103
0020
1030
,
0001
0100
0001
0100
0000
0000
0000
0000
,
0020
1030
0200
0310
,
2002
0000
0000
3003
,
0010
0000
0000
1000
1000
0000
0001
0000
,
0100
0000
0000
0010
0010
0000
1000
0000
,
0100
0000
0000
0010
0010
0000
0001
0000
,
2000
3200
0320
0031
,
1000
0000
0000
0010
0100
0000
0110
0000
,
0001
0000
0000
1000
0100
0000
1100
0000
,
0001
0010
0100
1000
0002
0000
0000
0000
,
0000
0000
0000
0003
,
1100
0000
0001
0100
0001
0000
0000
0000
,
1000
0001
0010
0011
,
1001
0000
1000
0100
1000
0000
0000
0000
,
0010
0010
0100
0110
,
1001
0000
1001
0000
,
1000
0100
0010
0000
0001
0000
1000
0000
,
0020
0000
0030
0000
1000
0001
1000
0000
,
0200
0000
0300
0000
1000
0001
1000
0000
,
0101
1100
0101
0000
,
0001
1000
0001
1000
0001
0000
0100
0000
,
0100
0010
0010
0000
,
1000
0010
1000
0000
0001
0000
0000
0000
,
1001
0000
1001
0000
,
1000
0100
1000
0000
0001
0010
0001
0000
,
2000
0000
3000
0000
0010
0100
0010
0000
,
2000
0000
3000
0000
0010
0100
0010
0000
,
2002
3003
0010
0000
,
2200
3300
0010
0000
,
0202
0303
1000
0001
,
0010
0010
0001
1000
,
0000
0100
0000
0100
,
0000
0010
0000
0010
,
0001
0001
1000
1000
,
0010
1000
0010
1000
0001
0100
0001
0000
,
0000
0100
0000
0100
,
0000
0000
0000
0000
,
1001
0010
1001
0000
,
1000
0100
1000
0100
0010
0000
0002
0000
,
1003
0000
2000
3000
,
0010
1000
0010
0000
0100
0000
0101
0000
,
1100
0000
0001
0000
,
1000
0010
1000
0000
0001
0010
0001
0000
,
0200
0300
0010
1001
,
0200
0300
0010
1001
,
1001
0000
1000
0100
0010
0000
0000
0000
,
0001
1000
0001
0000
0100
0000
0010
0000
,
0010
1000
0001
0000
,
1000
0100
1000
0000
0001
0000
0010
0000
,
0010
0000
0000
0001
0001
0000
0000
0000
,
0100
0100
0010
1000
,
0100
0000
0000
0000
1000
0100
0010
0000
,
0001
0000
1000
1001
,
0001
0000
0000
0000
;

//---------------dance-single - ----------------
#NOTES:
     dance-single:
     :
     Easy:
     3:
     0.181398,0.242262,0.066831,0.108600,0.000000,131.000000,8.000000,13.000000,0.000000,0.000000,0.000000,0.181398,0.242262,0.066831,0.108600,0.000000,131.000000,8.000000,13.000000,0.000000,0.000000,0.000000:
0000
0000
0000
0000
,
0000
0000
0000
0000
,
0000
0000
0000
0000
,
0000
0000
0000
0000
,
1000
0000
0001
0000
,
0100
0000
0100
0000
,
0010
0000
1000
0000
,
0001
0000
0000
0000
,
1000
0000
0100
0100
,
0010
0000
0010
0010
,
0001
0000
0001
0001
,
1000
0000
0001
0000
,
0100
0000
0010
0010
,
1000
0000
1000
1000
,
0100
0000
0100
0000
,
0000
0000
0000
0000
,
1001
0000
0010
0000
,
1000
0100
0010
0000
,
0001
0000
1000
0000
,
0001
0100
0010
0000
,
1001
0000
1001
0000
,
0010
0010
0010
0000
,
2000
3000
1000
0000
,
0002
0003
0001
0000
,
1001
0000
1000
0000
,
0010
1000
0001
0100
,
0100
0000
0010
0000
,
1000
0001
1000
0100
,
0100
0000
0010
0000
,
0001
0001
1000
0000
,
0020
0030
0010
0000
,
0200
0300
0100
0000
,
2002
3003
0000
0010
,
0020
0030
0000
1000
,
2000
3000
0000
0001
,
0002
0003
0000
0000
,
0100
0100
0000
0010
,
1000
1000
0000
0001
,
0100
0100
0000
0010
,
1000
0100
0010
0001
,
0000
0100
0000
0100
,
0000
0000
0000
0000
,
1001
0000
0010
0000
,
0100
0100
0001
1000
,
1000
0000
0010
0000
,
1000
1000
0001
0010
,
0010
0000
0001
0000
,
1000
1000
1000
0000
,
0002
0003
0001
0000
,
0200
0300
0100
0000
,
1001
0000
0001
0000
,
1000
1000
1000
0010
,
0010
0000
0100
0000
,
0001
1000
0001
0010
,
0010
0000
0001
0000
,
1000
0100
0010
0000
,
0002
0003
0001
0000
,
2000
3000
1000
0000
,
0110
0000
0000
0000
;

//---------------dance-single - ----------------
#NOTES:
     dance-single:
     :
     Beginner:
     1:
     0.097860,0.121131,0.025062,0.000000,0.000000,79.000000,3.000000,0.000000,0.000000,0.000000,0.000000,0.097860,0.121131,0.025062,0.000000,0.000000,79.000000,3.000000,0.000000,0.000000,0.000000,0.000000:
0000
0000
0000
0000
,
0000
0000
0000
0000
,
0000
0000
0000
0000
,
0000
0000
0000
0000
,
0001
0000
0000
0000
,
1000
0000
0000
0000
,
0010
0000
0000
0000
,
0010
0000
0000
0000
,
0100
0000
0100
0000
,
0001
0000
0000
0000
,
1000
0000
1000
0000
,
0010
0000
0000
0000
,
1000
0000
0100
0100
,
0000
0000
0010
0010
,
0000
0000
0001
0000
,
0000
0000
0000
0000
,
1000
0000
0000
0000
,
0010
0000
0010
0000
,
0100
0000
0000
0000
,
0001
0001
0000
1000
,
1000
0000
0000
0000
,
0010
0000
0010
0000
,
0100
0000
0000
0010
,
0010
0000
0000
0000
,
1001
0000
0000
0000
,
0001
0000
0001
0000
,
0100
0000
0000
0000
,
0010
0000
0010
0000
,
1000
0000
0000
0000
,
0100
0100
0100
0000
,
1000
0000
0000
0000
,
0001
0000
0000
0000
,
0100
0000
0000
0000
,
0010
0000
0000
0000
,
1000
0000
0000
0000
,
0001
0000
0000
0000
,
0000
1000
0000
1000
,
0000
0000
0000
0000
,
0000
0001
0000
0001
,
0000
0000
0000
0000
,
0000
0100
0000
0100
,
0000
0000
0000
0000
,
1001
0000
0000
0000
,
0010
0000
0010
0000
,
1000
0000
0000
0000
,
0001
0001
0000
1000
,
1000
0000
0000
0000
,
0001
0001
0001
0000
,
0100
0000
0000
0000
,
0100
0000
0000
0000
,
1001
0000
0000
0000
,
1000
0000
0010
0000
,
0010
0000
0000
0000
,
1000
1000
0000
0001
,
0001
0000
0000
0000
,
0100
0100
0100
0000
,
0001
0000
0000
0000
,
1000
0000
0000
0010
,
0010
0000
0000
0000
;
