#VERSION:0.82;
#TITLE:Yog Sothoth;
#SUBTITLE:;
#ARTIST:Nato;
#TITLETRANSLIT:;
#SUBTITLETRANSLIT:;
#ARTISTTRANSLIT:;
#GENRE:PRIME Boss Candidate;
#ORIGIN:;
#CREDIT:;
#BANNER:Yog Sothoth.png;
#BACKGROUND:Yog Sothoth-bg.png;
#PREVIEWVID:;
#JACKET:jacket.png;
#CDIMAGE:;
#DISCIMAGE:;
#LYRICSPATH:;
#CDTITLE:cdtitle.png;
#MUSIC:Yog Sothoth.ogg;
#OFFSET:-0.080000;
#SAMPLESTART:46.893360;
#SAMPLELENGTH:14.339993;
#SELECTABLE:YES;
#DISPLAYBPM:100.000000:200.000000;
#BPMS:0.000=400.000,
24.000=100.000,
31.000=200.000,
33.000=100.000,
40.000=200.000,
42.000=100.000,
49.000=200.000,
51.000=100.000,
59.000=200.000,
203.000=50.000,
210.000=200.000;
#STOPS:210.000=0.150,
210.500=0.150,
211.000=0.150,
211.500=0.150;
#DELAYS:;
#WARPS:;
#TIMESIGNATURES:0.000=4=4;
#TICKCOUNTS:0.000=4;
#COMBOS:0.000=1;
#SPEEDS:0.000=1.000=0.000=0;
#SCROLLS:0.000=1.000;
#FAKES:;
#LABELS:0.000=Song Start;
#BGCHANGES:24.000=Yog Sothoth.avi=1.000=1=0=1===CrossFade==,
99999=-nosongbg-=1.000=0=0=0 // don't automatically add -songbackground-
;
#KEYSOUNDS:;
#ATTACKS:
;

//---------------dance-single - ----------------
#NOTEDATA:;
#CHARTNAME:;
#STEPSTYPE:dance-single;
#DESCRIPTION:;
#CHARTSTYLE:;
#DIFFICULTY:Hard;
#METER:11;
#RADARVALUES:0.811715,1.000000,0.206169,0.329870,0.585519,624.000000,25.000000,40.000000,0.000000,0.000000,0.000000,0.000000,0.000000,0.811715,1.000000,0.206169,0.329870,0.585519,624.000000,25.000000,40.000000,0.000000,0.000000,0.000000,0.000000,0.000000;
#CREDIT:Ben Speirs;
#DISPLAYBPM:100.000000;
#NOTES:
0000
0000
0000
0000
,
0000
0000
0000
0000
,
0000
0000
0000
0000
,
0000
0000
0000
0000
,
0000
0000
0000
0000
,
0000
0000
0000
0000
,
2001
3200
0320
0032
,
0203
0320
2030
3002
,
0000
0203
0320
2030
,
3200
0320
0032
2003
,
3020
0000
0230
0302
,
0023
2030
3002
0203
,
2300
3020
0000
2030
,
3200
0302
2003
3020
,
0032
0000
0000
0000
2003
0000
0000
0000
3001
0100
0010
1000
0001
0000
0000
0000
,
0000
0000
0000
0000
,
0000
0000
0000
0000
0000
0000
1000
1000
,
0100
1000
0000
0001
0101
0000
0010
1000
,
0010
1000
0100
0010
0001
0000
0100
0001
,
0100
0010
1000
0100
0010
0000
0001
0010
,
0001
1000
0010
0100
0001
0000
1000
0100
,
1000
0000
0001
0000
0100
0000
0010
0000
1000
0000
0000
0000
0001
0010
0001
0000
,
0100
0000
0010
0000
1000
0100
1000
0000
0001
0000
0000
0000
1000
0000
0100
0000
,
1000
0010
0100
0001
1000
0000
0001
0010
,
0001
0100
0010
1000
0001
0000
1000
0100
,
0010
0001
1000
0001
0100
0000
0010
0000
,
1001
0000
0000
1100
0000
0101
0100
0010
,
1000
0000
0100
0000
1000
0001
1000
0000
0010
0000
0000
0000
1000
0000
0100
0000
,
0010
0000
0001
0000
0100
0010
0100
0000
0001
0000
0000
0000
1000
0000
0100
0000
,
0010
0000
0001
0000
1000
0010
1000
0000
0001
0000
0000
0000
0100
0010
0100
0000
,
0001
0000
1000
0000
0010
0100
0010
0000
1000
0000
0000
0000
0001
0010
0001
0000
,
0100
0000
0010
0000
1000
0000
0100
0000
1000
0000
0000
0000
0001
0100
0001
0000
,
0100
0000
0010
0000
1000
0000
0100
0000
0010
0000
0000
0000
0100
1000
0100
0000
,
1000
0010
0100
0001
1000
0000
0010
0000
,
1001
0000
0000
0000
0000
0000
0100
0001
0100
0000
0000
0000
0010
0000
1000
0100
,
1000
0000
0001
0100
0001
0000
1000
0100
1000
0000
0001
0100
0002
0000
0000
0000
,
1003
0000
0000
0000
0001
0000
0100
0000
0010
0000
1000
0000
0100
0000
1000
0010
,
1000
0000
0001
0010
0001
0000
1000
0010
1000
0000
0001
0010
0002
0000
0000
0000
,
1003
0000
0000
0000
0001
0000
1000
0100
0010
0000
0001
0000
0100
0000
0001
0010
,
0001
0000
1000
0010
1000
0000
0001
0010
0001
0000
1000
0010
2000
0000
0000
0000
,
3001
0000
1000
0010
0100
0001
1000
0100
,
0010
0000
0000
0001
0000
0000
1000
0000
0100
0000
1000
0000
0001
0000
0100
0000
0001
0000
1000
0000
0010
0000
1000
0000
,
0001
0000
0000
0000
0010
0000
0000
0000
0001
0000
0000
0000
1000
0000
0000
0000
0000
0000
0000
0000
0000
1100
0000
0000
0000
0000
0000
0000
0000
0000
1001
0000
0000
0000
0000
0000
0001
0000
0000
0000
0000
0000
0100
0000
0000
0010
0000
0000
,
1000
0000
0100
0010
0001
0000
0100
0010
1000
0000
0100
0010
0001
0000
0000
0000
,
1001
0000
0000
0000
1000
0000
0100
0000
0010
0000
0001
0000
1000
0000
0010
0100
,
0001
0000
0010
0100
1000
0000
0010
0100
0001
0000
0010
0100
1000
0000
0000
0000
,
1001
0000
0000
0000
1000
0000
0100
0010
0001
0000
1000
0000
0001
0000
0100
0001
,
0100
0000
0010
0100
0010
0000
1000
0010
1000
0000
0010
1000
0001
0000
0000
0000
,
1001
0000
1000
0100
0010
0001
0100
0100
,
0010
0000
0000
1000
0000
0000
0001
0000
0010
0000
0001
0000
1000
0000
0010
0000
1000
0000
0001
0000
0100
0000
0001
0000
,
1000
0000
0000
0000
0100
0000
0000
0000
1000
0000
0000
0000
0001
0000
0000
0000
0000
0000
0000
0000
0000
0011
0000
0000
0000
0000
0000
0000
0000
0000
1001
0000
0000
0000
0000
0000
0200
0000
0000
0000
0000
0000
0000
0000
0000
0000
0000
0000
,
0000
0000
0000
0300
,
0000
0000
0000
0000
0001
0100
1000
1001
,
1020
0000
0000
0000
0000
0000
0130
0000
0000
0001
0000
0000
0100
0000
0000
0010
0000
0000
1000
0000
0100
0000
0010
0000
,
0002
0000
1003
0100
0001
0100
1000
0010
,
0200
0000
0000
0000
0000
0000
0310
0000
0000
1000
0000
0000
0010
0000
0000
0100
0000
0000
0001
0000
0010
0000
0100
0000
,
2000
0000
3001
0010
1000
0010
0001
1000
,
1100
0000
0110
0000
0001
1000
1001
0000
,
0101
0000
0000
0000
0000
0000
0010
0000
0000
1000
0000
0000
0001
0000
0010
0000
0001
0000
1000
0000
0010
0000
1000
0000
,
0001
0000
0100
0000
0010
0000
1000
0000
0100
0000
0010
0000
,
0001
0000
1000
0000
0001
0000
1000
0000
0010
0100
0010
0100
0001
0000
0000
0000
,
1001
0000
0000
0000
,
0000
0000
0000
0000
,
0001
0001
0010
0001
0000
1000
1010
0000
,
0001
0100
0001
0100
0010
1000
0001
0000
,
1100
0100
0010
0001
0100
0010
0100
0001
,
0010
1000
0010
0001
0100
1000
0100
0010
,
1000
0100
0010
0001
1000
0010
0100
0001
,
1000
0000
0100
0000
0010
0000
0001
0000
1000
0010
1000
0010
1000
0010
1000
0010
,
0100
0001
0010
0100
1000
1000
0100
0010
,
0001
0100
0001
0100
0010
1000
0010
1000
0100
0010
0100
0010
0001
1000
0001
1000
,
0010
0000
0100
0000
0001
0000
1000
0100
0010
0001
1000
0000
0010
0100
0010
0000
,
1000
0000
0001
0000
0010
0000
0001
0000
1001
0000
0000
1100
0000
0000
0101
0000
,
1000
0100
1000
0010
0100
0010
1000
0000
0001
0000
0010
0000
0100
0000
1000
0000
,
0001
0010
0001
0100
0010
0100
0001
0000
1000
0000
0100
0000
0010
0000
0001
0000
,
0100
0010
0100
0001
0010
0001
0100
0000
0010
0000
1000
0000
0001
0000
1000
0000
,
0010
0100
0010
0100
0001
0100
0001
0100
0010
1000
0010
1000
0100
1000
0100
1000
,
0001
0000
0000
0000
0000
0000
0000
0000
1000
0100
1000
0100
0010
0001
0010
0001
,
1000
0010
0100
0001
0010
0100
1000
0001
,
0100
0010
0100
0000
0001
0000
1000
0000
0010
0100
0010
0000
1000
0000
0100
0000
,
0010
0001
0010
0000
0100
1000
0100
0000
1000
0001
1000
0000
0010
1000
0010
0000
,
0100
0000
0100
0000
0001
1000
0001
0000
0000
0000
1000
0000
0010
0000
1000
0000
,
0001
0100
0001
0000
1000
0000
0100
0000
0100
0000
1000
0010
1000
0000
0001
0100
,
0010
1000
0010
0100
0001
0100
0010
1000
0100
0010
0001
1000
0010
0100
0010
1000
,
0100
0010
0001
0100
0010
1000
0001
1000
0100
0010
0001
0100
0010
1000
0100
1000
,
0001
0000
0000
0010
0000
0000
0001
0000
0000
0100
0000
0000
0010
0000
0000
1000
0000
0000
0100
0000
0000
0010
0000
0000
0001
0000
0000
0000
0100
0000
0000
0000
0001
0000
0000
0000
1000
0000
0000
0000
0100
0000
0000
0000
1000
0000
0000
0000
,
0020
0000
0000
0000
,
0000
0000
0000
0000
,
0000
0000
0030
0000
;

//---------------dance-single - ----------------
#NOTEDATA:;
#CHARTNAME:;
#STEPSTYPE:dance-single;
#DESCRIPTION:;
#CHARTSTYLE:;
#DIFFICULTY:Challenge;
#METER:14;
#RADARVALUES:1.000000,1.000000,0.420584,0.230909,1.000000,827.000000,51.000000,28.000000,0.000000,0.000000,0.000000,0.000000,0.000000,1.000000,1.000000,0.420584,0.230909,1.000000,827.000000,51.000000,28.000000,0.000000,0.000000,0.000000,0.000000,0.000000;
#CREDIT:Ben Speirs;
#DISPLAYBPM:100.000000;
#NOTES:
0000
0000
0000
0000
,
0000
0000
0000
0000
,
0000
0000
0000
0000
,
0000
0000
0000
0000
,
0000
0000
0000
0000
,
0000
0000
0000
0000
,
2100
0000
0000
0000
3002
0000
0000
0103
0010
0000
0010
0000
2010
0000
0000
0000
,
3002
0000
0000
0000
0023
0000
0000
0031
0100
0000
0100
0000
2001
0000
0000
0000
,
0100
0000
0000
0000
3020
0000
0000
0000
0230
0000
0000
0301
1000
0000
1000
0000
,
1002
0000
0000
0000
0203
0000
0000
0000
0320
0000
0000
1030
0100
0000
0100
0000
,
0010
0000
0001
0000
0000
0000
1000
0000
1002
0000
0000
0000
2003
0000
0000
3010
,
0100
0000
0100
0000
0102
0000
0000
0000
2003
0000
0000
0000
3200
0000
0000
1300
,
0010
0010
1002
0000
0010
0000
0203
0000
,
0320
0000
0000
1030
0001
0000
0001
0000
2001
0000
0000
0000
3020
0000
0000
0000
,
0230
0000
0000
0301
0010
0000
0010
0000
0001
0010
0100
1000
0010
0000
0000
0000
,
0000
0000
0000
0000
,
0000
0000
0000
0000
0000
0000
1000
1000
,
0100
0000
1000
0000
0000
0000
0001
0000
0101
0000
0000
0000
1000
0100
1000
0100
,
0010
0001
0010
0001
0100
0010
1000
0001
0100
0000
0000
0000
1001
0000
1000
0100
,
0010
0000
0001
0000
0100
0000
0010
0000
1000
0000
0001
0000
0010
0000
0001
0100
,
0010
0000
1000
0000
0100
0000
1000
0000
0010
0000
0100
0000
0001
0000
1000
0010
,
0100
0000
0001
0000
1000
0000
0010
0000
1000
0000
0001
0000
0100
0010
0100
0001
,
0010
0100
1000
0010
0100
0010
1000
0100
0010
0000
0001
0000
1000
0000
0001
0010
,
0100
0000
1000
0000
0010
0000
0100
0000
0001
0000
1000
0000
0100
0000
1000
0010
,
0100
0000
0001
0000
0010
0000
0001
0000
0100
0000
0010
0000
1000
0000
0001
0100
,
0010
1000
0001
0100
0001
1000
0010
0100
,
0110
0000
0000
1001
0000
1001
1000
0010
,
0100
0000
0001
0010
0100
1000
0001
0000
1000
0000
0100
0000
0010
0000
0001
0000
,
0100
0000
0010
1000
0100
0010
0001
0000
1000
0000
0010
0000
1000
0000
0100
0000
,
0010
0000
0001
1000
0010
0100
0001
0000
1000
0000
0010
0000
0100
0010
0100
0001
,
0010
0100
1000
0010
0100
0010
1000
0100
0010
0000
0001
0000
1000
0000
0100
0000
,
0010
0000
0001
0100
0010
1000
0001
0000
0100
0000
0010
0000
1000
0000
0100
0000
,
0010
0000
0100
1000
0010
0100
0001
0000
1000
0000
0010
0000
0100
0000
0001
0000
,
1000
0000
0001
0010
0100
1000
0010
0000
0100
0000
0001
0000
0101
0000
0000
0000
,
1001
0000
0000
0000
1000
0100
0010
0001
1000
0000
0000
0000
0101
0000
0001
0100
,
0010
0000
1000
0100
0010
0000
0001
0100
0010
0000
1000
0100
0010
0000
0000
0000
,
1001
0000
0000
0000
0001
0010
0100
1000
0010
0100
0001
1000
0100
0000
1000
0010
,
0100
0000
0001
0010
0100
0000
1000
0010
0100
0000
0001
0010
0100
0000
0000
0000
,
1001
0000
0000
0000
1000
0100
0010
0001
0100
0010
1000
0001
0010
0000
0001
0100
,
0001
0000
0100
0010
0100
0000
0010
1000
0010
0000
1000
0001
1000
0000
0000
0000
,
1001
0000
0000
0000
1000
0010
0100
0001
0010
0100
1000
0010
0100
0001
0100
0001
,
1000
0000
0000
0100
0000
0000
1000
0000
0000
0100
0000
0000
0010
0000
0000
0000
0001
0000
0000
0000
0100
0000
0000
0000
0010
0000
0000
0000
1000
0000
0000
0000
0100
0000
0000
0000
0010
0000
0000
0000
0001
0000
0000
0000
1000
0000
0000
0000
,
0010
0000
0000
0000
0100
0000
0000
0000
0001
0000
0000
0000
1001
0000
0000
0000
0000
0000
0000
0000
0000
1100
0000
0000
0000
0000
0000
0000
0000
0000
0101
0000
0000
0000
0000
0000
1000
0000
0000
0000
0000
0000
0100
0000
0000
0010
0000
0000
,
0001
0000
0010
0001
1000
0000
0001
1000
0010
0000
1000
0010
0100
0000
0000
0000
,
0101
0000
0000
0000
0001
0100
0010
1000
0100
0010
0001
0100
0001
0000
0010
0100
,
1000
0000
0100
1000
0001
0000
1000
0001
0100
0000
0001
0100
0010
0000
0000
0000
,
1010
0000
0000
0000
1000
0010
0100
0001
0010
0100
1000
0010
0100
0000
0001
0100
,
0001
0000
1000
0100
1000
0000
0001
0010
0001
0000
1000
0010
1000
0000
0000
0000
,
1001
0000
0000
0000
0001
0100
0010
1000
0100
0010
0001
0100
0010
1000
0010
1000
,
0001
0000
0000
0010
0000
0000
0001
0000
0000
0010
0000
0000
0100
0000
0000
0000
1000
0000
0000
0000
0010
0000
0000
0000
0100
0000
0000
0000
0001
0000
0000
0000
0010
0000
0000
0000
0100
0000
0000
0000
1000
0000
0000
0000
0001
0000
0000
0000
,
0100
0000
0000
0000
0010
0000
0000
0000
1000
0000
0000
0000
1001
0000
0000
0000
0000
0000
0000
0000
0000
0011
0000
0000
0000
0000
0000
0000
0000
0000
1010
0000
0000
0000
0000
0000
2002
0000
0000
0000
0000
0000
0000
0000
0000
0000
0000
0000
,
0000
0000
0000
3003
,
0000
0000
0000
0000
1100
0101
1010
0011
,
1001
0000
0000
1000
0000
0000
0100
0000
0000
0010
0000
0000
2001
0000
0000
0000
0000
0000
3001
0000
0010
0000
0100
0000
,
1000
0000
0001
0000
0100
0010
0100
0010
0100
0010
0100
0010
1000
0000
0000
0000
,
1001
0000
0000
0001
0000
0000
0010
0000
0000
0100
0000
0000
1002
0000
0000
0000
0000
0000
1003
0000
0100
0000
0010
0000
,
0001
0000
1000
0000
0010
0100
0010
0100
0010
0100
0010
0100
0001
0000
1000
0000
,
1010
0000
0000
0000
0000
0000
1001
0000
0000
0000
0000
0000
0101
0000
0000
0100
0000
0000
0110
0000
0010
0000
1000
0000
,
0200
0000
0000
0000
0000
0000
0000
0000
0000
0000
0000
0000
0310
0000
0000
0001
0000
0000
0010
0000
0000
0001
0000
0000
1000
0000
0000
0000
0100
0000
0000
0000
1000
0000
0000
0000
0001
0000
0000
0000
0100
0000
0000
0000
0001
0000
0000
0000
,
1000
0000
1010
0000
1001
0000
0011
0000
1001
0000
1100
0000
,
1001
0000
0100
0000
1001
0000
0100
0000
0001
0010
0100
1000
0001
0000
0000
0000
,
1100
0000
0000
0000
,
0000
0000
0000
0000
,
0001
0001
0010
0001
0000
1000
1010
0000
,
0001
0100
0010
1000
0001
0010
0100
1000
0001
0100
0010
1000
0001
0010
0100
1000
,
0001
0100
0001
0010
0100
0010
0001
0100
0010
1000
0100
0010
0001
0100
0010
1000
,
0100
0010
0100
1000
0010
1000
0100
0010
0001
0100
0010
1000
0001
0100
0010
1000
,
0001
0100
0001
1000
0100
1000
0010
0100
0001
1000
0100
0010
0001
0100
0010
1000
,
0001
0100
0010
1000
0100
0010
0001
1000
0010
0100
0001
1000
0100
1000
0010
0100
,
0001
0010
0001
1000
0010
1000
0001
0100
0010
1000
0100
0010
0001
0100
0010
1000
,
0001
0100
0001
0100
0010
1000
0010
1000
0001
0010
0100
1000
0100
0010
0001
0010
,
0100
1000
0010
0100
0010
1000
0100
0010
0001
0100
0010
1000
0001
0100
0010
1000
,
0100
0010
0001
0100
0010
1000
0100
1000
0001
0000
0000
1001
0000
0000
1000
0000
,
0010
1000
0010
0100
0010
1000
0010
0100
0001
1000
0100
0010
0001
1000
0010
1000
,
0001
0100
0001
0010
0001
0100
0001
1000
0100
0010
0001
0100
0010
1000
0001
1000
,
0100
0010
0100
1000
0100
0010
0100
1000
0010
0100
0001
1000
0100
0010
0001
0100
,
0010
1000
0100
0010
0001
0100
0010
1000
0001
0010
0100
1000
0001
0100
0010
1000
,
0100
0000
0000
0000
0000
0000
0000
0000
1000
0100
0010
0001
1000
0100
0010
0001
,
1000
0010
0100
0001
1000
0010
0100
0001
1000
0100
1000
0100
0010
0001
0010
0001
,
0100
0010
1000
0100
0010
0001
0100
0001
1000
0100
1000
0001
0010
0001
0100
0010
,
1000
0100
1000
0010
0100
0001
0010
0100
1000
0001
1000
0001
0100
0010
1000
0100
,
1000
0000
0000
0000
0001
0010
0100
1000
0100
0010
0001
0010
0100
1000
0100
0010
,
0001
0100
0001
1000
0100
0010
0001
0100
0010
1000
0001
1000
0010
0100
0001
0100
,
0010
1000
0010
1000
0010
1000
0001
0010
0001
0010
0001
0100
0010
1000
0100
0010
,
0001
0100
0001
0100
0001
0100
0010
1000
0010
1000
0010
0100
0001
1000
0100
0010
,
0001
0000
0000
0100
0000
0000
0010
0000
0000
1000
0000
0000
0100
0000
0000
0010
0000
0000
0001
0000
0000
1000
0000
0000
0010
0000
0000
0000
0100
0000
0000
0000
0010
0000
0000
0000
1000
0000
0000
0000
0001
0000
0000
0000
1000
0000
0000
0000
,
0020
0000
0000
0000
,
0000
0000
0000
0000
,
0000
0000
0030
0000
;

//---------------dance-double - ----------------
#NOTEDATA:;
#CHARTNAME:;
#STEPSTYPE:dance-double;
#DESCRIPTION:;
#CHARTSTYLE:;
#DIFFICULTY:Challenge;
#METER:12;
#RADARVALUES:0.874155,1.000000,0.222662,0.321623,0.700973,676.000000,27.000000,39.000000,0.000000,0.000000,0.000000,0.000000,0.000000,0.874155,1.000000,0.222662,0.321623,0.700973,676.000000,27.000000,39.000000,0.000000,0.000000,0.000000,0.000000,0.000000;
#CREDIT:Ben Speirs;
#DISPLAYBPM:100.000000;
#NOTES:
00000000
00000000
00000000
00000000
,
00000000
00000000
00000000
00000000
,
00000000
00000000
00000000
00000000
,
00000000
00000000
00000000
00000000
,
00000000
00000000
00000000
00000000
,
00000000
00000000
00000000
00000000
,
00012000
00000000
00003200
00000000
00000302
00000010
00002003
00000000
,
00003200
00000000
00020300
00000000
00032000
00000100
00023000
00000000
,
00000000
00000000
00032000
00000000
02003000
00000000
03020000
00100000
,
20030000
00000000
30200000
00000000
02300000
00000000
03002000
00100000
,
00023000
00000000
00030200
00000302
,
00000203
00000010
00002300
00000000
00003002
00000000
00000203
00000000
,
00002300
00010000
00203000
00000000
00000000
00000000
00320000
00000000
,
20030000
00000000
30200000
00010000
02300000
00000000
03020000
00000000
,
00230000
00000000
00000000
00000000
00302000
00000000
00000000
00000000
00103000
00001000
00010000
00000100
00001000
00000000
00000000
00000000
,
00000000
00000000
00000000
00000000
,
00000000
00000000
00000000
00000000
00000000
00000000
00000001
00000001
,
00000100
00000000
00000001
00000000
00000000
00000000
00001000
00000000
00001100
00000000
00000000
00000000
00000001
00000100
00000001
00000000
,
00001000
00000000
00000010
00000000
00001000
00000100
00001000
00000000
00000001
00000000
00000000
00000000
00001100
00000000
00000100
00000000
,
00000010
00000001
00000100
00001000
00000100
00000010
00001000
00000100
,
00010000
00001000
00010000
00100000
10000000
01000000
00100000
00010000
,
01000000
00000000
00010000
00000000
00100000
00000000
10000000
00000000
00100000
00000000
00010000
00000000
01000000
00010000
01000000
00000000
,
00100000
00000000
10000000
00000000
00010000
00100000
00010000
00000000
10000000
00000000
00000000
00000000
00010000
00000000
01000000
00000000
,
00100000
10000000
01000000
01000000
00100000
00010000
10000000
00100000
,
01000000
00010000
00100000
00100000
00010000
00100000
00001000
00010000
,
00000100
00010000
00001000
00001000
00100000
00010000
01000000
00000000
,
01010000
00000000
00000000
11000000
00000000
10010000
00010000
00100000
,
01000000
10000000
00100000
00010000
00100000
01000000
00010000
00100000
,
00001000
00010000
00001000
00000100
00000001
00000010
00000100
00001000
,
00000010
00000000
00001000
00000000
00000100
00000000
00000001
00000000
00000100
00000000
00001000
00000000
00000010
00001000
00000010
00000000
,
00000100
00000000
00000001
00000000
00001000
00000100
00001000
00000000
00000001
00000000
00000000
00000000
00001000
00000000
00000010
00000000
,
00000100
00000001
00000010
00000010
00000100
00001000
00000001
00000100
,
00000010
00001000
00000100
00000100
00001000
00000100
00010000
00001000
,
00100000
00001000
00010000
00010000
00000100
00001000
00000010
00000000
,
00001010
00000000
00000000
00000000
00000000
00000000
00000001
00001000
00000001
00000000
00000000
00000000
00001000
00000000
00000100
00001000
,
00000100
00000000
00001000
00000001
00001000
00000000
00000001
00000100
00000001
00000000
00001000
00000100
00001000
00000000
00000000
00000000
,
00001001
00000000
00000000
00000000
00000001
00000000
00000100
00000000
00001000
00000000
00010000
00000000
00001000
00000000
00100000
00001000
,
00100000
00000000
00001000
00010000
00001000
00000000
00010000
00000100
00010000
00000000
00000100
00010000
00000100
00000000
00000000
00000000
,
00011000
00000000
00000000
00000000
00001000
00000000
00010000
00000000
00100000
00000000
10000000
00000000
00010000
00000000
00100000
00010000
,
00100000
00000000
00010000
10000000
00010000
00000000
10000000
00100000
10000000
00000000
00100000
01000000
00100000
00000000
00000000
00000000
,
10010000
00000000
00000000
00000000
10000000
01000000
00100000
00010000
01000000
00100000
10000000
00010000
01000000
00000000
01000000
00000000
,
00100000
00000000
00000000
00100000
00000000
00000000
01000000
00000000
00010000
00000000
01000000
00000000
00010000
00000000
00100000
00000000
00010000
00000000
00100000
00000000
00001000
00000000
00100000
00000000
,
00001000
00000000
00000000
00000000
00010000
00000000
00000000
00000000
00001000
00000000
00000000
00000000
00100000
00000000
00000000
00000000
00000000
00000000
00000000
00000000
00000000
00110000
00000000
00000000
00000000
00000000
00000000
00000000
00000000
00000000
10010000
00000000
00000000
00000000
00000000
00000000
00010000
00000000
00000000
00000000
00000000
00000000
00100000
00000000
00000000
00010000
00000000
00000000
,
00100000
00000000
00010000
10000000
00010000
00000000
10000000
00100000
10000000
00000000
00010000
00100000
00010000
00000000
00000000
00000000
,
10010000
00000000
00000000
00000000
10000000
00000000
00100000
00000000
00010000
00000000
00001000
00000000
00010000
00000000
00000100
00010000
,
00000100
00000000
00010000
00001000
00010000
00000000
00001000
00100000
00001000
00000000
00100000
00001000
00100000
00000000
00000000
00000000
,
00011000
00000000
00000000
00000000
00010000
00000000
00001000
00000000
00000100
00000000
00000001
00000000
00001000
00000000
00000100
00001000
,
00000100
00000000
00001000
00000001
00001000
00000000
00000001
00000100
00000001
00000000
00000100
00000010
00000100
00000000
00000000
00000000
,
00001001
00000000
00000000
00000000
00000001
00000010
00000100
00001000
00000010
00000100
00000001
00001000
00000010
00000000
00000010
00000000
,
00000100
00000000
00000000
00000100
00000000
00000000
00000010
00000000
00001000
00000000
00000010
00000000
00001000
00000000
00000100
00000000
00001000
00000000
00000100
00000000
00010000
00000000
00000100
00000000
,
00010000
00000000
00000000
00000000
00001000
00000000
00000000
00000000
00010000
00000000
00000000
00000000
00000100
00000000
00000000
00000000
00000000
00000000
00000000
00000000
00000000
00001100
00000000
00000000
00000000
00000000
00000000
00000000
00000000
00000000
00001001
00000000
00000000
00000000
00000000
00000000
00000200
00000000
00000000
00000000
00000000
00000000
00000000
00000000
00000000
00000000
00000000
00000000
,
00000000
00000000
00000000
00000300
,
00000000
00000000
00000000
00000000
00001100
00011000
00110000
01100000
,
10020000
00000000
00000000
00000000
00000000
00000000
10030000
00000000
00000000
01000000
00000000
00000000
00100000
00000000
00000000
00010000
00000000
00000000
10000000
00000000
00100000
00000000
10000000
00000000
,
00020000
00000000
00000000
00000000
01030000
00100000
01000000
00100000
01000000
00000000
00100000
00000000
10000000
00000000
00010000
00000000
,
00200000
00000000
00301000
00010000
00001000
00000100
00000001
00001000
,
00000002
00000000
00000000
00000000
00001003
00000100
00001000
00000100
00001000
00000100
00001000
00000100
00000010
00000000
00000001
00000000
,
00002001
00000000
00000000
00000000
00000000
00000000
00003001
00000000
00000000
00000010
00000000
00000000
00000100
00000000
00000000
00001000
00000000
00000000
00000001
00000000
00000100
00000000
00000001
00000000
,
00002000
00000000
00000000
00000000
00003010
00000100
00000010
00000100
00000010
00000000
00000100
00000000
00000001
00000000
00001000
00000000
,
00000100
00000000
00010000
00000000
00001000
00000000
00100000
00000000
00010000
00000000
01000000
00000000
,
00100000
00000000
10000000
00000000
00010000
00000000
00100000
00000000
00001000
00100000
00001000
00010000
00001000
00000000
00000000
00000000
,
00011000
00000000
00000000
00000000
,
00000000
00000000
00000000
00000000
,
10000000
10000000
00100000
10000000
00000000
00010000
00110000
00000000
,
10000000
01000000
10000000
00000000
01000000
00100000
01000000
00000000
00100000
00010000
00100000
00000000
00010000
10000000
00010000
00000000
,
10000000
00000000
00100000
00000000
01000000
00000000
00010000
00000000
00100000
00010000
00100000
00010000
10000000
00100000
01000000
00010000
,
10000000
00000000
01000000
00000000
00100000
00000000
00010000
00000000
00100000
00001000
00100000
00001000
00010000
00000100
00001000
00000010
,
00000100
00000000
00000001
00000000
00001000
00000000
00000100
00000000
00000010
00000001
00000010
00000001
00000100
00000010
00001000
00000001
,
00000100
00000000
00000010
00000000
00001000
00000000
00000100
00000000
00010000
00000100
00010000
00000100
00001000
00000010
00000100
00000001
,
00001000
00000000
00000010
00000000
00000100
00000000
00000001
00000000
00001000
00000100
00000010
00000000
00000001
00000100
00000010
00000000
,
00001000
00000100
00001000
00000100
00010000
00001000
00010000
00001000
00100000
00010000
00100000
00010000
10000000
00100000
10000000
00100000
,
01000000
00000000
00010000
00000000
10000000
00000000
00010000
00100000
01000000
10000000
00100000
00000000
01000000
00000000
00010000
00000000
,
10000000
01000000
00100000
00010000
01000000
00100000
00010000
00001000
00100000
00000000
00000000
00101000
00000000
00000000
00010100
00000000
,
00001000
00000100
00001000
00000010
00001000
00000100
00001000
00000000
00000010
00000000
00000100
00000000
00000001
00000000
00001000
00000000
,
00000001
00000010
00000001
00000100
00000001
00000010
00000001
00000000
00000100
00000000
00000010
00000000
00001000
00000000
00000100
00000000
,
00010000
00000100
00010000
00001000
00010000
00000100
00010000
00000000
00001000
00000000
00100000
00000000
00010000
00000000
01000000
00000000
,
00100000
10000000
00100000
10000000
00010000
00100000
00010000
00100000
01000000
10000000
00100000
01000000
00010000
10000000
01000000
00100000
,
00010000
00000000
00000000
00000000
00000000
00000000
00000000
00000000
10000000
01000000
00100000
00010000
10000000
00100000
01000000
00010000
,
10000000
00000000
00100000
00000000
01000000
00000000
00010000
00000000
00100000
00000000
00001000
00100000
00001000
00000000
00010000
00000100
,
00010000
00000100
00001000
00000100
00000010
00000000
00000001
00000000
00000100
00000000
00000010
00000000
00001000
00000001
00001000
00000000
,
00000001
00000100
00000001
00000100
00000010
00001000
00000010
00001000
00000100
00010000
00000100
00010000
00000010
00001000
00000010
00001000
,
00000001
00000010
00000100
00001000
00000001
00000100
00000010
00001000
00000100
00000000
00010000
00000000
00001000
00000000
00100000
00000000
,
00010000
01000000
00010000
00000000
10000000
00000000
00010000
00000000
10000000
00000000
01000000
00100000
00010000
00000000
00000000
00000000
,
10000000
01000000
00100000
00010000
10000000
01000000
00100000
00010000
00100000
00000000
00001000
00000000
00010000
00000000
00000100
00000000
,
00001000
00000100
00000010
00000001
00001000
00000100
00000010
00000001
00001000
00000000
00000100
00000000
00010000
00000000
00001000
00000000
,
01000000
00000000
00000000
00010000
00000000
00000000
00100000
00000000
00000000
00001000
00000000
00000000
00010000
00000000
00000000
00000100
00000000
00000000
00001000
00000000
00000000
00000010
00000000
00000000
00000100
00000000
00000000
00000000
00000001
00000000
00000000
00000000
00001000
00000000
00000000
00000000
00000100
00000000
00000000
00000000
00010000
00000000
00000000
00000000
00001000
00000000
00000000
00000000
,
00200000
00000000
00000000
00000000
,
00000000
00000000
00000000
00000000
,
00000000
00000000
00300000
00000000
;

//---------------dance-single - ----------------
#NOTEDATA:;
#CHARTNAME:;
#STEPSTYPE:dance-single;
#DESCRIPTION:;
#CHARTSTYLE:;
#DIFFICULTY:Medium;
#METER:7;
#RADARVALUES:0.558422,0.693345,0.230909,0.527792,0.000000,382.000000,28.000000,64.000000,0.000000,0.000000,0.000000,0.000000,0.000000,0.558422,0.693345,0.230909,0.527792,0.000000,382.000000,28.000000,64.000000,0.000000,0.000000,0.000000,0.000000,0.000000;
#CREDIT:Ben Speirs;
#DISPLAYBPM:100.000000;
#NOTES:
0000
0000
0000
0000
,
0000
0000
0000
0000
,
0000
0000
0000
0000
,
0000
0000
0000
0000
,
0000
0000
0000
0000
,
0000
0000
0000
0000
,
2001
3200
0320
0032
,
0203
0320
2030
3002
,
0000
0203
0320
2030
,
3200
0320
0032
2003
,
3020
0000
0230
0302
,
2003
3002
0023
0230
,
2300
3020
0000
2030
,
3200
0320
0032
2003
,
3002
0000
0203
0000
0010
0010
0310
0000
,
0000
0000
0000
0000
,
0000
0000
0000
0010
,
1000
0100
0000
0100
0010
0000
0001
1000
,
0001
0100
0000
0010
,
1000
0100
0000
0100
0010
0000
0001
0000
,
1000
0010
0000
0010
0100
0000
0001
0000
,
1000
0100
0000
0100
0010
0000
0001
0010
,
0100
1000
0010
0100
0001
0000
1000
0000
,
0001
0100
0000
0100
0010
0000
1000
0000
,
0100
0010
0000
0010
0001
0000
1000
0000
,
0010
0100
0000
0100
0001
0000
1000
0000
,
1001
0000
0000
0101
0000
0000
1000
0000
,
0100
1000
0100
0000
0010
0000
0001
0000
,
0100
0001
0100
0000
0010
0000
1000
0000
,
0001
0010
0001
0000
1000
0000
0001
0100
,
0010
1000
0100
0010
0001
0000
1000
0000
,
0010
1000
0010
0000
0100
0000
0001
0000
,
1000
0100
1000
0000
0001
0000
0010
0000
,
0001
0100
0001
0000
1000
0000
0010
0000
,
1001
0000
0000
0000
0100
0000
0001
0100
,
0001
0100
0001
0100
0001
0100
0001
0000
,
0100
0000
0010
1000
0100
0000
1000
0001
,
1000
0001
1000
0001
1000
0001
1000
0000
,
0010
0000
1000
0100
0010
0000
0100
1000
,
0100
1000
0100
1000
0100
1000
0100
0000
,
1000
0000
0010
1000
0001
0000
1000
0100
,
1000
0000
0001
0100
0001
0000
2000
0000
,
3200
0000
0320
0000
0032
0000
0103
0010
,
1000
0010
0100
0010
1000
0010
0100
0000
,
0001
0000
1000
0100
0010
0000
0001
1000
,
0100
1000
0001
1000
0100
1000
0001
0000
,
0100
0000
0010
1000
0100
0000
0010
0001
,
0010
0100
0010
0001
0010
0100
0010
0000
,
0001
0000
0100
0001
1000
0000
0020
0000
,
2030
3002
0023
0230
,
2300
3002
0103
2002
,
0000
0000
0000
3003
,
0000
0000
0000
0000
1000
1000
0001
0001
,
2002
3003
0010
1000
,
1100
0000
0100
0000
0010
0001
0100
0000
,
0202
0303
0010
1000
,
1001
0000
1001
0000
0100
1000
0001
0000
,
0201
0000
0310
1000
,
0100
0010
0100
0000
0010
0001
0010
0000
,
0002
0203
0320
2030
,
3200
0000
0320
0000
0031
1000
0001
0000
,
1001
0000
0000
0000
,
0000
0000
0000
0000
,
0100
0000
0001
0010
0000
0010
0100
0000
,
2000
3200
0320
0031
,
1000
0100
1000
0001
1000
0000
0010
0000
,
0100
0001
0100
0010
1000
0000
0100
0000
,
0010
0001
0010
0100
1000
0000
0001
0000
,
0100
0001
0100
0000
0010
1000
0010
0000
,
1000
0100
1000
0001
1000
0000
0010
0000
,
0100
0001
0100
0010
1000
0100
0010
0000
,
0001
1000
0001
0000
0100
0000
0010
0000
,
1000
0100
1000
0000
1100
0000
0000
0000
,
1001
0000
1001
0000
0010
1000
0100
0000
,
1100
0000
1100
0000
1000
0001
0100
0000
,
1001
0000
1001
0000
0010
0001
0100
0000
,
0001
0100
0010
1000
0100
0010
0001
1000
,
0010
0000
0000
0000
1000
0100
1000
0000
,
0001
0010
0001
0000
1000
0001
1000
0000
,
0002
0203
0320
2030
,
3001
0010
0100
1000
0010
0100
0001
0000
,
1000
0100
1000
0000
0001
0100
0001
0000
,
1000
0100
1000
0100
0010
0001
1000
0000
,
1010
0000
0000
1001
0000
0000
0100
0000
,
0101
0000
0000
1001
0000
0000
0100
0000
,
1100
0101
1010
0011
,
2002
0000
0000
0000
,
0000
0000
0000
0000
,
0000
0000
3003
0000
;

//---------------dance-single - ----------------
#NOTEDATA:;
#CHARTNAME:;
#STEPSTYPE:dance-single;
#DESCRIPTION:;
#CHARTSTYLE:;
#DIFFICULTY:Easy;
#METER:5;
#RADARVALUES:0.321623,0.620361,0.041234,0.313376,0.000000,230.000000,5.000000,38.000000,0.000000,0.000000,0.000000,0.000000,0.000000,0.321623,0.620361,0.041234,0.313376,0.000000,230.000000,5.000000,38.000000,0.000000,0.000000,0.000000,0.000000,0.000000;
#CREDIT:Ben Speirs;
#DISPLAYBPM:100.000000;
#NOTES:
0000
0000
0000
0000
,
0000
0000
0000
0000
,
0000
0000
0000
0000
,
0000
0000
0000
0000
,
0000
0000
0000
0000
,
0000
0000
0000
0000
,
2001
3000
0200
0300
0020
0030
0002
0003
,
0200
0300
0020
0030
2000
3000
0002
0000
,
0000
0000
2003
3000
0020
0030
0200
0300
,
0002
0003
0020
0030
0200
0300
2000
3000
,
0020
0000
0000
0000
0230
0300
0002
0003
,
2000
3000
0200
0300
0020
0030
0002
0003
,
2000
3000
0020
0000
0000
0000
0230
0300
,
0002
0003
2000
3000
0100
0000
0020
0030
,
0002
0003
2000
0000
0000
0000
3001
0000
,
0000
0000
0000
0000
,
0000
0000
0000
1000
,
0000
0000
0000
0001
,
0000
0000
0000
1000
,
0000
0001
0000
0100
,
0000
0100
0000
0010
,
0000
1000
0000
0100
,
1000
0100
0010
0001
,
0000
1000
0000
0001
,
0000
0100
0000
0010
,
0000
1000
0000
0001
,
0001
0000
1000
1000
,
0000
0010
0000
1000
,
0100
0010
0000
0001
,
1000
0010
0000
0100
,
0100
0010
1000
0001
,
0001
0010
0000
0001
,
1000
0010
0000
1000
,
1000
0001
0000
0010
,
0001
0000
0000
0000
1001
0000
0000
1000
,
0000
0100
0000
0010
0000
0001
0000
0000
,
1000
0000
0001
0000
0100
0000
0000
0001
,
0000
0010
0000
0100
0000
1000
0000
0000
,
0001
0000
1000
0000
0010
0000
0000
0100
,
0000
0100
0000
0010
0000
0010
0000
0000
,
1000
0100
0010
0001
,
0001
1000
1000
0010
,
1000
0000
0002
0000
0003
0000
0000
1000
,
0000
1000
0000
0001
0000
0001
0000
0000
,
0100
0000
0010
0000
1000
0000
0000
0001
,
0000
0001
0000
1000
0000
1000
0000
0000
,
0100
0000
0010
0000
0001
0000
0000
1000
,
0000
0001
0000
0100
0000
0010
0000
0000
,
1000
0010
0010
0100
,
0001
0010
0100
1000
,
0001
0100
0100
2002
,
0000
0000
0000
3003
,
0000
0000
0020
0000
,
0130
0000
0000
0000
,
0001
0001
1000
1000
,
0020
0000
0030
0000
,
1000
1000
0100
0100
,
0020
0000
0000
0030
,
0001
0001
1000
1000
,
0010
0100
0010
1000
,
0100
0010
0001
1000
,
1001
0000
0000
0000
,
0000
0000
0000
0000
,
0001
0000
0000
0000
,
1000
0000
0001
0000
,
0100
0100
0010
1000
,
0100
0100
0010
0001
,
0100
0100
0010
1000
,
0100
0100
0010
0001
,
1000
0000
0001
0000
,
1000
1000
0010
0000
,
0100
0100
0010
1000
,
0100
0100
0010
0000
,
0001
0010
0001
0000
,
1000
0010
1000
0000
,
0001
0100
0001
0000
,
1000
1000
0100
0010
,
0001
0000
0100
0100
,
0010
0010
1000
0000
,
0001
0100
0001
0000
,
1000
0100
1000
0000
,
0001
0001
1000
1000
,
0010
1000
0001
0000
,
0100
0000
0000
0100
0000
0000
0000
0000
,
0010
0000
0000
0010
0000
0000
0000
0000
,
1000
0000
0000
0001
0000
0000
0000
0000
,
2002
0000
0000
0000
,
0000
0000
0000
0000
,
0000
0000
3003
0000
;

//---------------dance-single - ----------------
#NOTEDATA:;
#CHARTNAME:;
#STEPSTYPE:dance-single;
#DESCRIPTION:;
#CHARTSTYLE:;
#DIFFICULTY:Beginner;
#METER:3;
#RADARVALUES:0.187319,0.283688,0.024740,0.000000,0.000000,156.000000,3.000000,0.000000,0.000000,0.000000,0.000000,0.000000,0.000000,0.187319,0.283688,0.024740,0.000000,0.000000,156.000000,3.000000,0.000000,0.000000,0.000000,0.000000,0.000000,0.000000;
#CREDIT:Ben Speirs;
#DISPLAYBPM:100.000000:200.000000;
#NOTES:
// measure 0
0000
0000
0000
0000
,  // measure 1
0000
0000
0000
0000
,  // measure 2
0000
0000
0000
0000
,  // measure 3
0000
0000
0000
0000
,  // measure 4
0000
0000
0000
0000
,  // measure 5
0000
0000
0000
0000
,  // measure 6
0000
0000
0000
0000
,  // measure 7
1000
0000
0001
0000
,  // measure 8
0000
0100
0000
0000
,  // measure 9
0000
0010
0000
1000
,  // measure 10
0000
0000
0001
0000
,  // measure 11
0000
0000
0010
0000
,  // measure 12
0001
0000
0000
1000
,  // measure 13
0000
0000
0000
0010
,  // measure 14
0000
1000
0000
1001
,  // measure 15
0000
0000
0000
0000
,  // measure 16
0000
0000
0000
0001
,  // measure 17
0000
0000
0000
1000
,  // measure 18
0000
0000
0000
0010
,  // measure 19
0010
0000
0000
1000
,  // measure 20
1000
0000
0000
0001
,  // measure 21
0001
0000
0000
0100
,  // measure 22
0000
0010
0000
1000
,  // measure 23
1000
0000
0000
0100
,  // measure 24
0100
0000
0000
0010
,  // measure 25
0010
0000
0000
0000
,  // measure 26
1001
0000
0000
0000
,  // measure 27
0001
0000
0001
0000
,  // measure 28
1000
0000
1000
0000
,  // measure 29
0010
0000
0010
0000
,  // measure 30
0100
0001
1000
0000
,  // measure 31
0100
0000
0100
0000
,  // measure 32
0010
0000
0010
0000
,  // measure 33
0001
0000
0001
1000
,  // measure 34
0010
0000
0000
0000
,  // measure 35
1000
1000
1000
1000
,  // measure 36
0000
0010
0000
0000
,  // measure 37
0100
0100
0100
0100
,  // measure 38
0000
0001
0000
0000
,  // measure 39
0010
0010
0010
0010
,  // measure 40
0000
0100
0000
1000
,  // measure 41
0000
0001
0000
0100
,  // measure 42
0000
0010
0000
0000
,  // measure 43
1000
1000
1000
1000
,  // measure 44
0000
0001
0000
0000
,  // measure 45
0010
0010
0010
0010
,  // measure 46
0000
0001
0000
0000
,  // measure 47
0100
0100
0100
0100
,  // measure 48
0000
0010
0000
1000
,  // measure 49
0000
0001
0000
1000
,  // measure 50
0000
0100
0100
0100
,  // measure 51
0000
0000
0000
0000
,  // measure 52
0000
0000
0010
0000
,  // measure 53
0000
0000
0000
0000
,  // measure 54
1000
0000
0100
0100
,  // measure 55
0010
0000
0000
0000
,  // measure 56
0001
0000
0100
0100
,  // measure 57
0010
0000
0000
0000
,  // measure 58
1000
0000
0000
0000
,  // measure 59
0001
0000
1000
0000
,  // measure 60
0010
0000
1000
1000
,  // measure 61
0001
0000
0000
0000
,  // measure 62
0000
0000
0000
0000
,  // measure 63
0100
0000
0000
0000
,  // measure 64
0010
0000
0000
0000
,  // measure 65
1000
0000
0001
0000
,  // measure 66
0010
0000
0001
0000
,  // measure 67
1000
0000
0001
0000
,  // measure 68
0100
0000
0010
0010
,  // measure 69
1000
0000
0001
0000
,  // measure 70
0010
0010
0001
0000
,  // measure 71
1000
0000
0001
0000
,  // measure 72
0100
0000
0010
0000
,  // measure 73
1000
1000
0100
0000
,  // measure 74
0010
0010
0001
0000
,  // measure 75
1000
0010
0100
0000
,  // measure 76
0001
0010
0100
1000
,  // measure 77
0001
0000
0000
0000
,  // measure 78
1000
0000
0000
0000
,  // measure 79
0010
0000
0010
0000
,  // measure 80
1000
0000
0001
0000
,  // measure 81
0100
0100
0000
0010
,  // measure 82
0010
0000
1000
0000
,  // measure 83
0001
0001
0001
0000
,  // measure 84
1000
1000
1000
0000
,  // measure 85
0001
0100
0010
0000
,  // measure 86
1001
0000
0000
0000
;
