#TITLE:Euphoria;
#SUBTITLE:-Sweden 2012-;
#ARTIST:Loreen;
#TITLETRANSLIT:;
#SUBTITLETRANSLIT:;
#ARTISTTRANSLIT:;
#CREDIT:;
#BANNER:Euphoria-bn.png;
#BACKGROUND:Euphoria-bg.png;
#LYRICSPATH:;
#CDTITLE:;
#MUSIC:Euphoria.mp3;
#OFFSET:-0.360;
#SAMPLESTART:90.660;
#SAMPLELENGTH:17.980;
#SELECTABLE:YES;
#DISPLAYBPM:66.000:132.000;
#BPMS:0.000=132.000,72.000=66.000,88.000=132.000,120.000=66.000,128.000=132.000,232.000=266.000,236.500=133.000;
#STOPS:232.000=0.170
,232.750=0.170
,233.500=0.170
,234.250=0.170
,235.000=0.170
,235.750=0.170
;
#BGCHANGES:2.000=Euphoria.avi=1.000=1=0=0,
99999=-nosongbg-=1.000=0=0=0 // don't automatically add -songbackground-
;

//---------------dance-single - ----------------
#NOTES:
     dance-single:
     :
     Hard:
     12:
     0.463,0.543,0.249,0.191,0.262: // measure 1
0000
0000
0000
0000
,  // measure 2
0000
0000
0000
0000
,  // measure 3
0020
1030
0100
0010
,  // measure 4
0001
0000
1000
0000
0001
0100
0010
0000
,  // measure 5
2000
3100
0020
0031
,  // measure 6
1000
0000
0001
0000
0100
0000
0010
1000
,  // measure 7
0200
1300
0010
1000
,  // measure 8
0001
0000
0010
0000
0001
0010
0100
0000
,  // measure 9
0020
0031
0200
0310
,  // measure 10
0100
0001
1000
0010
,  // measure 11
2001
0100
0100
0100
,  // measure 12
0010
0000
0100
0000
3010
1000
0100
1000
,  // measure 13
0001
0010
0001
1000
,  // measure 14
0010
0010
1000
1000
,  // measure 15
1100
0000
0010
0000
1000
0001
0100
0000
,  // measure 16
0010
0000
1000
0001
0100
0010
1000
0100
,  // measure 17
0010
0001
1000
0010
,  // measure 18
0100
0010
1000
0000
0001
0000
0110
0000
,  // measure 19
2001
0000
0000
0000
0000
0000
3100
0200
0000
0000
0000
0300
1000
0100
0010
0001
,  // measure 20
0200
0000
0000
0302
0000
0000
2003
0000
0000
3000
0000
0010
0010
1000
0100
1000
,  // measure 21
0002
0000
0000
0203
0000
0000
0320
0000
0000
0030
0000
0000
0000
0010
1000
0100
,  // measure 22
0010
0000
0000
0001
0000
0000
1000
0000
0000
0010
0000
0000
0100
0000
0000
0010
0000
0000
1000
0000
0000
0000
0000
0000
0000
0000
0000
0000
1001
0000
0000
0000
,  // measure 23
0102
0000
0013
0000
1000
0100
0010
0000
,  // measure 24
0001
0000
1000
0000
0100
0000
0000
0001
1000
0000
0010
0000
0001
0000
0010
0000
,  // measure 25
1000
0000
0100
1000
0001
0000
0010
0001
,  // measure 26
0100
0000
0000
0000
0110
0000
0000
1000
0001
0000
0100
0000
1000
0000
0100
0000
,  // measure 27
0001
0000
0010
0001
1000
0000
0100
1000
,  // measure 28
0010
0000
1100
0000
0001
1000
0001
0100
,  // measure 29
0010
0000
0000
1000
0000
0000
0100
0000
0000
0010
0000
0000
0001
0000
0000
1000
,  // measure 30
0000
1001
0000
0000
0100
0000
0120
0000
,  // measure 31
1030
0000
0000
0001
0000
0000
0100
0000
0000
0000
0010
1000
0100
1000
0001
0010
,  // measure 32
0100
0000
0000
0010
0000
0000
0001
0000
0000
1000
0000
0000
0010
0000
1010
0000
,  // measure 33
0100
0000
0000
0001
0100
0000
0010
0000
0100
0000
0000
0000
0001
0000
0000
0000
,  // measure 34
1000
0000
0100
1000
0001
1000
0010
0000
,  // measure 35
0100
0000
0000
0010
0100
0000
0001
0000
1000
0000
0000
0000
0010
0000
1000
0000
,  // measure 36
0100
0000
1000
0000
0001
0010
0100
1000
,  // measure 37
0010
0000
1000
0010
0000
0000
1000
0000
0001
0000
1000
0001
0000
0000
0100
0000
,  // measure 38
0001
0000
0100
0001
0000
0000
0100
0000
0010
0000
0100
0000
0001
0000
1000
0000
,  // measure 39
0100
2010
3100
2001
,  // measure 40
3010
0012
1003
0201
,  // measure 41
0310
0000
0100
0010
0000
0000
0100
0000
0001
0000
0100
0001
0000
0000
1000
0000
,  // measure 42
0001
0000
1000
0001
0000
0000
1000
0000
0100
0000
1000
0000
0010
0000
0100
0000
,  // measure 43
0010
0000
0000
1000
0000
0000
0100
0000
0000
0010
0000
0000
0001
0000
0000
1000
,  // measure 44
0000
0000
0001
0000
0000
0100
0000
0000
0010
0000
0000
1000
0000
0000
0010
0000
,  // measure 45
1001
0000
0000
1000
0100
0000
1000
0000
0010
0000
0100
0000
0010
0000
0000
0000
,  // measure 46
1000
0000
0001
0000
0100
0000
0000
1000
0010
0000
1000
0000
0100
0000
0001
0000
,  // measure 47
0100
0000
1000
0010
0001
0000
0010
1000
,  // measure 48
0100
0000
0000
0000
1001
0000
0000
0010
0100
0000
0100
0000
0001
0000
1000
0000
,  // measure 49
0100
0000
1000
0001
0100
0000
0010
1000
,  // measure 50
0001
0000
1100
0000
0101
0100
0010
1000
,  // measure 51
0100
0000
0000
1000
0000
0000
0001
0000
0000
0100
0000
0000
0010
0000
0000
1010
,  // measure 52
0000
1001
0000
0000
0100
1000
1001
0000
,  // measure 53
0110
0000
0000
0100
0000
0000
0001
0000
0000
1000
0000
0000
0100
0000
0000
1000
,  // measure 54
0000
0000
0001
0000
0000
0100
0000
0010
0100
0000
0001
0000
0100
0000
0010
0000
,  // measure 55
1000
0000
0000
0100
0000
0000
1000
0000
0000
0010
0000
0000
0100
0000
0000
0010
,  // measure 56
0000
0000
1000
0000
0000
0100
0000
0010
0001
0000
1000
0000
0010
0000
1000
0000
,  // measure 57
0001
0000
0000
0100
0000
0000
0010
0000
0000
1000
0000
0000
0001
0000
0000
0100
,  // measure 58
0000
0000
0010
0000
0000
1000
0000
0100
1000
0000
0010
0000
0100
0000
0010
0000
,  // measure 59
1010
0000
0000
0101
0000
0000
0011
0000
0000
1100
0000
0000
0101
0000
0000
1010
,  // measure 60
0000
2002
0000
3003
0000
0000
0000
0000
;

//---------------dance-single - ----------------
#NOTES:
     dance-single:
     :
     Medium:
     7:
     0.300,0.296,0.075,0.083,0.012:
0000
0000
0000
0000
,
0000
0000
0000
0000
,
0010
1000
0100
0000
,
1000
0000
0001
0000
0010
0000
0001
0010
,
0100
0000
0010
0000
,
0001
0000
1000
0000
0000
0000
0100
1000
,
0010
0000
1000
0000
,
0010
1000
0100
0010
,
0001
0000
0100
0000
,
0001
0000
1000
0000
0000
0000
0100
1000
,
0010
1000
0100
0100
,
1000
0000
0000
0000
0001
0010
0100
0000
,
0010
0001
1000
1000
,
0001
0000
0001
0000
0100
0001
0100
0000
,
0001
0000
0100
0001
,
1000
0000
0100
0000
1000
0010
0100
0000
,
0010
0010
0100
0000
,
0010
1000
0100
0000
,
2002
0000
0000
0003
0200
0000
0000
3000
,
0020
0000
0000
0300
0002
0000
0000
0030
,
0200
0000
0000
0003
0020
0000
0000
0300
,
2000
0000
0000
0030
0002
0000
0000
3003
,
0110
1000
0001
0100
,
0010
0000
1000
0000
0001
0010
0100
1000
,
0001
1000
0010
0100
,
0010
0000
1000
0000
0100
1000
0010
0100
,
0001
0100
0001
1000
,
0001
0000
0010
0000
0100
1000
0010
0100
,
0010
0010
0010
1000
,
1100
1001
0000
0010
,
0110
0000
0001
0000
1000
0000
0010
1000
,
0100
0000
1000
0000
0001
1000
0010
0000
,
0100
0100
0010
1000
,
0001
0000
0000
0000
1000
0100
0010
0001
,
1000
0010
0100
0100
,
0010
1000
0001
0000
,
0010
0001
0010
0000
0001
0000
1000
0000
,
0100
1000
0100
0000
1000
0000
0010
0000
,
0100
0010
0000
1000
,
0001
0100
0001
0000
,
1000
0100
1000
0000
0010
0000
1000
0000
,
0010
0100
0010
0000
1000
0000
0001
0000
,
1001
0000
0000
0000
,
0100
0100
0100
0110
,
1001
0100
1000
0010
,
0100
0000
0010
0000
1000
0010
0100
0001
,
1000
0010
1000
0001
,
0010
0000
0100
0000
0010
0001
0100
0010
,
1000
0001
1000
0010
,
0100
0000
0010
0000
1000
0100
0010
0001
,
0010
0010
0010
0010
,
0100
0000
1001
0000
0000
0000
0010
1000
,
0100
1000
0001
0010
,
0001
0000
1000
0000
0010
1000
0100
1000
,
0010
1000
0100
0010
,
0001
0000
1000
0000
0001
0100
0001
0010
,
0001
0100
0010
1000
,
0100
0000
0010
0000
0001
1000
0001
1000
,
0010
0000
0000
0100
0000
0000
0001
0000
0000
1000
0000
0000
0010
0000
0000
1000
,
0000
0200
0000
0300
0000
0000
0000
0000
;

//---------------dance-single - ----------------
#NOTES:
     dance-single:
     :
     Easy:
     3:
     0.196,0.271,0.066,0.091,0.000:
0000
0000
0000
0000
,
0000
0000
0000
0000
,
0010
0000
1000
0000
,
0100
0000
1000
0001
,
0100
0000
0001
0000
,
0010
0000
0001
0010
,
0100
0000
0010
0000
,
0001
0000
1000
0010
,
0100
0000
0010
0000
,
1000
0000
0100
0000
,
1001
0000
1000
0000
,
0100
0000
0010
0001
,
1000
0000
0100
0000
,
1000
0000
0010
1000
,
0100
0000
1000
0000
,
0001
0000
1000
0100
,
0010
0000
0001
0000
,
1000
0001
0100
0010
,
0010
0000
0100
0001
,
1000
0000
0100
0100
,
0100
0000
1000
0001
,
0010
0010
0010
0010
,
1001
0000
0100
0000
,
1000
0010
1000
0100
,
0010
0000
0100
0000
,
1000
0010
0100
0001
,
0010
0000
0001
0000
,
1000
0001
0100
0001
,
2000
3000
0002
0003
,
0220
0330
0000
0000
,
0010
0000
0100
0010
,
1000
0000
0100
1000
,
0010
0000
1000
0000
,
0010
0010
1000
1000
,
0100
0000
1000
0000
,
0001
0001
1000
1000
,
0200
1300
0200
1300
,
0000
0000
0000
0000
,
0010
0000
1000
0000
,
0100
0000
0010
0000
,
0002
0103
0002
0103
,
0002
0103
0000
0000
,
1001
0000
0000
0000
,
0000
0000
0000
0110
,
0110
0000
0100
0000
,
0010
0000
1000
0100
,
0010
0000
0001
0000
,
1000
0000
0001
0010
,
0100
0000
0010
0000
,
0001
0000
1000
0010
,
0100
0100
0100
0100
,
0100
0100
0000
0000
,
1001
0000
0100
0000
,
1000
0000
0010
1000
,
0100
0000
1000
0000
,
0001
1000
0100
0100
,
0100
0000
1000
0000
,
0010
0010
0010
0000
,
2002
0000
0000
0000
,
0000
3003
0000
0000
;

//---------------dance-single - ----------------
#NOTES:
     dance-single:
     :
     Beginner:
     1:
     0.095,0.193,0.042,0.000,0.000:
0000
0000
0000
0000
,
0000
0000
0000
0000
,
0000
0000
0000
0000
,
0000
0000
0000
0000
,
0010
0000
0000
0000
,
0010
0000
0000
0000
,
0100
0000
0000
0000
,
0100
0000
0000
0000
,
0001
0000
0000
0000
,
0001
0000
0000
0000
,
1000
0000
0000
0000
,
1000
0000
0000
0000
,
0010
0000
0000
0000
,
0010
0000
0000
0000
,
1000
0000
0000
0000
,
1000
0000
0000
0000
,
0100
0000
0000
0000
,
0100
0000
0000
0000
,
1001
0000
0000
0010
,
0010
0000
0000
0100
,
0100
0000
0000
0001
,
0001
0000
0000
1000
,
1000
0000
0000
0000
,
0010
0000
0010
0000
,
0010
0000
0000
0000
,
0100
0000
0100
0000
,
0100
0000
0000
0000
,
0001
0000
0001
0000
,
0001
0000
0000
0000
,
1000
0000
0000
0000
,
0110
0000
0000
0100
,
0100
0000
0000
0010
,
0010
0000
0000
0000
,
1000
0000
0000
0000
,
0100
0000
0000
0000
,
1000
0000
0000
0000
,
0001
0000
0001
0000
,
0001
0000
0000
0000
,
0100
0000
0000
0000
,
0001
0000
0000
0000
,
0010
0000
0010
0000
,
0010
0000
0000
0000
,
1001
0000
0000
0000
,
0000
0000
0000
0000
,
0100
0000
0100
0000
,
0100
0000
0000
0000
,
1000
0000
1000
0000
,
1000
0000
0000
0000
,
0010
0000
0010
0000
,
0010
0000
0000
0000
,
0100
0100
0100
0100
,
0100
0100
0000
0000
,
1001
0000
0000
0000
,
1000
0000
0001
0000
,
0001
0000
0000
0000
,
0100
0000
0010
0000
,
0010
0000
0000
0000
,
1000
0000
1000
0000
,
1001
0000
0000
0000
;
