#VERSION:0.82;
#TITLE:I Love It;
#SUBTITLE:;
#ARTIST:Icona Pop feat. Charli XCX;
#TITLETRANSLIT:;
#SUBTITLETRANSLIT:;
#ARTISTTRANSLIT:;
#GENRE:Dance;
#ORIGIN:;
#CREDIT:;
#BANNER:I Love It.png;
#BACKGROUND:I Love It-bg.png;
#PREVIEWVID:;
#JACKET:jacket.png;
#CDIMAGE:;
#DISCIMAGE:;
#LYRICSPATH:;
#CDTITLE:cdtitle.png;
#MUSIC:I Love It.ogg;
#OFFSET:0.006000;
#SAMPLESTART:98.059166;
#SAMPLELENGTH:17.959999;
#SELECTABLE:YES;
#BPMS:0.000=126.000;
#STOPS:;
#DELAYS:;
#WARPS:;
#TIMESIGNATURES:0.000=4=4;
#TICKCOUNTS:0.000=4;
#COMBOS:0.000=1;
#SPEEDS:0.000=1.000=0.000=0;
#SCROLLS:0.000=1.000;
#FAKES:;
#LABELS:0.000=Song Start;
#BGCHANGES:4.000=I Love It.avi=1.000=0=0=1=====,
99999=-nosongbg-=1.000=0=0=0 // don't automatically add -songbackground-
;
#KEYSOUNDS:;
#ATTACKS:
;

//---------------dance-single - ----------------
#NOTEDATA:;
#CHARTNAME:;
#STEPSTYPE:dance-single;
#DESCRIPTION:;
#CHARTSTYLE:;
#DIFFICULTY:Hard;
#METER:8;
#RADARVALUES:0.525888,0.593001,0.185676,0.048437,0.169530,427.000000,23.000000,6.000000,0.000000,0.000000,0.000000,0.000000,0.000000,0.525888,0.593001,0.185676,0.048437,0.169530,427.000000,23.000000,6.000000,0.000000,0.000000,0.000000,0.000000,0.000000;
#CREDIT:Ben Speirs;
#NOTES:
0000
0000
0000
0000
,
0000
0000
0000
0000
,
0000
0000
0000
0000
,
0000
0000
0000
0000
,
0001
0000
0100
0000
1000
0010
1000
0000
,
0100
0000
0001
0000
0010
0001
0010
0000
,
0001
0000
1000
0000
0010
0010
0010
0000
,
0100
0100
0100
0000
0001
1000
0010
0000
,
1000
0000
0100
0000
0001
0010
0001
0010
,
0001
0000
0100
0000
1000
0010
1000
0010
,
1000
0000
0001
0000
1000
0100
0010
0001
,
1000
0000
1001
1001
,
0010
1000
0100
1000
0010
0100
0100
0100
,
0001
1000
0010
0100
0002
0000
2003
0000
,
3001
0010
0001
1000
0001
0100
0010
1000
,
0100
0010
0100
1000
0010
0100
0001
0000
,
0100
0001
0100
0010
1000
0100
0010
0001
,
1000
0010
0000
0100
0000
0000
0001
0000
1000
0000
0100
0010
0000
0000
0001
0000
,
1000
0000
0010
0000
1000
0000
0001
0000
0010
0000
0001
0000
1000
0010
0000
0100
,
0000
0000
0001
0000
1000
0000
0100
0000
0010
0001
0000
1000
0000
0000
0010
0000
,
0100
0000
0010
0000
1000
0000
0100
0000
0010
0000
0001
0000
1000
0010
0000
0100
,
0000
0000
0001
0000
1000
0000
0100
0000
0010
0000
0001
1000
0000
0000
0010
0000
,
1000
0000
0001
0000
0100
0000
0010
0000
1000
0000
0100
0000
0010
0000
0001
1000
,
0001
0100
0101
1010
,
1001
0001
1000
0100
0010
0001
0001
0001
,
0010
0001
1000
0010
0200
0000
0320
0000
,
1030
0100
1000
0001
0010
0100
1000
0010
,
0100
0001
0100
0010
1000
0001
0010
0000
,
0011
0000
0000
0000
1000
0000
0000
0000
0010
0000
0000
0010
0000
0000
0100
0000
,
0001
0000
0000
0000
1000
0000
0000
0000
0100
0000
0000
0100
0000
0000
0010
0000
,
0001
0000
0000
0000
1100
0000
0000
0000
0001
0000
0000
1000
0000
0000
0010
0000
,
0100
0000
0000
0000
0101
0000
0000
0000
1000
0000
0000
0001
0000
0000
0010
0000
,
0100
0000
0000
0000
1100
0000
0000
0000
0011
0000
0000
1000
0000
0000
0001
0000
,
0100
0000
0000
0000
0101
0000
0000
0000
1010
0000
0000
0010
0000
0000
0100
0000
,
0001
0000
0000
0000
1000
0000
0000
0000
0010
0000
0000
1000
0000
0000
0100
0000
,
0000
0010
0000
0000
0001
0000
1000
0000
0000
0000
0000
0000
1001
0000
0000
0000
,
0010
1000
0010
1000
0100
0010
0001
1000
,
0010
0100
1000
0100
0010
1000
0100
0010
,
0001
1000
0001
1000
0010
0100
0001
1000
,
0100
0001
0100
0010
0001
1000
1000
1000
,
0001
1000
0010
0100
0001
1000
0100
0010
,
0001
1000
0001
1000
0010
0100
0010
0100
,
0001
0010
1000
0010
0001
0100
1000
0100
,
0010
1000
0100
0001
0100
0010
0001
0000
,
1100
0100
0010
0001
1000
0010
0100
0001
,
1000
0100
0000
0010
0000
0000
0001
0000
1000
0000
0010
0100
0000
0000
0001
0000
,
1000
0000
0100
0000
1000
0000
0001
0000
0100
0000
0010
0000
1000
0001
0000
0010
,
0000
0000
0001
0000
1000
0000
0010
0000
0100
0001
0000
1000
0000
0000
0100
0000
,
0010
0000
0001
0000
1000
0000
0010
0000
0100
0000
0001
0000
1000
0100
0000
0010
,
0000
0000
0001
0000
1000
0000
0010
0000
0100
0000
0001
1000
0000
0000
0010
0000
,
1000
0000
0100
0000
0010
0000
0001
0000
1000
0000
0010
0000
0100
0000
0001
1000
,
0001
0100
1001
1001
,
1010
0000
0010
0000
0100
0000
0001
0000
1000
0000
0100
0010
0100
0010
0100
0000
,
0010
0001
1000
0010
0200
0000
0302
0000
,
1003
0000
0010
0000
0100
0000
0001
0000
1000
0000
0100
0010
0100
0010
0100
0000
,
1000
0000
0010
0100
0010
0100
0010
0000
1000
0000
0100
0000
1100
0000
0000
0000
,
0101
0000
0100
0000
0010
0000
1000
0000
0001
0000
1000
0100
1000
0100
1000
0000
,
0010
1000
0100
0010
0001
1000
0010
0000
,
0101
0000
0100
0000
0010
0000
1000
0000
0001
0000
0010
0100
0010
0100
0010
0000
,
0001
0000
0100
0010
0100
0010
0100
0000
0001
0000
0010
0000
0011
0000
0000
0000
,
1100
0100
0001
0100
1000
0100
0001
0100
,
1000
0010
0001
0010
1000
0010
0001
0010
,
1000
0100
0001
0100
0010
0001
0100
1000
,
0100
0010
1000
0100
0001
0100
0010
1001
;

//---------------dance-double - ----------------
#NOTEDATA:;
#CHARTNAME:;
#STEPSTYPE:dance-double;
#DESCRIPTION:;
#CHARTSTYLE:;
#DIFFICULTY:Challenge;
#METER:8;
#RADARVALUES:0.537421,0.593001,0.314841,0.016146,0.193748,425.000000,39.000000,2.000000,0.000000,0.000000,0.000000,0.000000,0.000000,0.537421,0.593001,0.314841,0.016146,0.193748,425.000000,39.000000,2.000000,0.000000,0.000000,0.000000,0.000000,0.000000;
#CREDIT:Ben Speirs;
#NOTES:
// measure 0
00000000
00000000
00000000
00000000
,  // measure 1
00000000
00000000
00000000
00000000
,  // measure 2
00000000
00000000
00000000
00000000
,  // measure 3
00000000
00000000
00000000
00000000
,  // measure 4
10000000
01000000
00100000
00100000
,  // measure 5
00010000
00000000
10000000
00000000
00100000
01000000
00010000
00000000
,  // measure 6
00100000
00100000
00001000
00100000
,  // measure 7
00001000
00000000
00010000
00000000
00001000
00010000
00000100
00000000
,  // measure 8
00001000
00000010
00000100
00000100
,  // measure 9
00000010
00000000
00001000
00000000
00000001
00000010
00000100
00000000
,  // measure 10
00001000
00000001
00001000
00000100
,  // measure 11
00010000
00000000
00010100
00101000
,  // measure 12
00011000
00010000
00000100
00000010
00000001
00000100
00000100
00000100
,  // measure 13
00000010
00001000
00000100
00010000
00002000
00000000
00203000
00000000
,  // measure 14
00310000
10000000
00100000
01000000
00010000
10000000
01000000
00100000
,  // measure 15
00010000
01000000
00010000
00100000
00001000
00010000
00000100
00000000
,  // measure 16
00010000
00001000
00010000
00000100
00000010
00000001
00000100
00000010
,  // measure 17
00001000
00000001
00000000
00000100
00000000
00000000
00000010
00000000
00001000
00000000
00000100
00010000
00000000
00000000
00001000
00000000
,  // measure 18
00100000
00000000
00010000
00000000
10000000
00000000
00100000
00000000
01000000
00000000
00010000
00000000
10000000
01000000
00000000
10000000
,  // measure 19
00000000
00000000
00010000
00000000
01000000
00000000
00100000
00000000
10000000
00010000
00000000
00100000
00000000
00000000
00001000
00000000
,  // measure 20
00100000
00000000
00010000
00000000
00100000
00000000
00001000
00000000
00010000
00000000
00000100
00000000
00010000
00001000
00000000
00100000
,  // measure 21
00000000
00000000
00001000
00000000
00010000
00000000
00000100
00000000
00000010
00000000
00000001
00000100
00000000
00000000
00000010
00000000
,  // measure 22
00001000
00000000
00000001
00000000
00000100
00000000
00001000
00000000
00010000
00000000
01000000
00000000
10000000
00010000
00000000
01000000
,  // measure 23
00000000
00100000
10100000
01010000
,  // measure 24
10010000
10000000
01000000
00100000
00010000
01000000
01000000
01000000
,  // measure 25
00010000
00100000
00001000
00010000
00011000
00000000
00010100
00000000
,  // measure 26
00001001
00000001
00000100
00000010
00001000
00000100
00000010
00000001
,  // measure 27
00000100
00000010
00001000
00000100
00010000
00001000
00010000
00000100
,  // measure 28
00001000
00000000
00000000
00000000
00001001
00000000
00000000
00000000
00001000
00000000
00000000
00000100
00000000
00000000
00010000
00000000
,  // measure 29
00001000
00000000
00000000
00000000
00011000
00000000
00000000
00000000
00010000
00000000
00000000
00001000
00000000
00000000
00100000
00000000
,  // measure 30
00010000
00000000
00000000
00000000
00110000
00000000
00000000
00000000
00010000
00000000
00000000
10000000
00000000
00000000
10000000
00000000
,  // measure 31
00100000
00000000
00000000
00000000
10100000
00000000
00000000
00000000
10000000
00000000
00000000
00010000
00000000
00000000
00010000
00000000
,  // measure 32
00100000
00000000
00000000
00000000
00101000
00000000
00000000
00000000
00010100
00000000
00000000
00010000
00000000
00000000
00000010
00000000
,  // measure 33
00000100
00000000
00000000
00000000
00000101
00000000
00000000
00000000
00001010
00000000
00000000
00001000
00000000
00000000
00000100
00000000
,  // measure 34
00010000
00000000
00000000
00000000
00010100
00000000
00000000
00000000
00101000
00000000
00000000
00110000
00000000
00000000
10100000
00000000
,  // measure 35
00000000
11000000
00000000
00000000
01010000
00000000
10010000
00000000
00000000
00000000
00000000
00000000
00000000
00000000
00000000
00000000
,  // measure 36
10000000
00100000
01000000
00010000
00100000
00001000
00010000
00000100
,  // measure 37
00000010
00000000
00000001
00000000
00000100
00000000
00000010
00000000
00001000
00000000
00000001
00000000
00000100
00000010
00000100
00000000
,  // measure 38
00000001
00000010
00000100
00001000
00000010
00010000
00000100
00001000
,  // measure 39
00000010
00000000
00000100
00000000
00000001
00000000
00001000
00000000
00000100
00000000
00010000
00001000
00010000
00001000
00010000
00000000
,  // measure 40
00001000
00100000
00010000
10000000
00100000
01000000
00010000
10000000
,  // measure 41
01000000
00100000
01000000
10000000
00100000
00010000
00001000
00000010
,  // measure 42
00000001
00000100
00000010
00001000
00000100
00001000
00000001
00000100
,  // measure 43
00000010
00001000
00000100
00010000
00001000
00100000
00101000
00000000
,  // measure 44
00110000
00010000
10000000
00100000
01000000
00010000
10000000
01000000
,  // measure 45
00100000
00010000
00100000
00000000
01000000
00000000
10000000
00000000
00100000
01000000
00100000
00000000
10000000
00000000
00000000
00000000
,  // measure 46
00100000
00000000
10000000
00000000
00010000
00000000
01000000
00000000
00100000
00000000
01000000
00000000
00010000
00100000
00000000
00001000
,  // measure 47
00000000
00000000
00100000
00000000
00001000
00000000
00010000
00000000
00000100
00001000
00000000
00000010
00000000
00000000
00000100
00000000
,  // measure 48
00000001
00000000
00001000
00000000
00000100
00000000
00000010
00000000
00000001
00000000
00001000
00000000
00000010
00000100
00000010
00000000
,  // measure 49
00001000
00000000
00000001
00000000
00000100
00000010
00000100
00000000
00000001
00000000
00001000
00000000
00000100
00000000
00000000
00000000
,  // measure 50
00010000
00000000
00000100
00000000
00010000
00000000
00000100
00000000
00000010
00000000
00000001
00000000
00000100
00000010
00000000
00001000
,  // measure 51
00000100
00000000
00001100
00010100
,  // measure 52
00101000
00000000
00001000
00000000
10000000
00000000
00010000
00000000
01000000
00000000
00100000
10000000
00100000
10000000
00100000
00000000
,  // measure 53
01000000
00010000
10000000
01000000
00100000
01000000
01100000
00000000
,  // measure 54
00110000
00000000
00010000
00000000
10000000
00000000
00100000
00000000
01000000
00000000
00010000
00100000
00010000
00100000
00010000
00000000
,  // measure 55
01000000
00000000
00010000
00100000
00010000
00100000
00010000
00000000
01000000
00000000
00010000
00000000
01010000
00000000
00000000
00000000
,  // measure 56
10010000
00000000
10000000
00000000
01000000
00000000
00010000
00000000
00001000
00000000
00000100
00000001
00000100
00000001
00000100
00000000
,  // measure 57
00000010
00000000
00001000
00000000
00000100
00000000
00000010
00000000
00000001
00001000
00000001
00000000
00001001
00000000
00000000
00000000
,  // measure 58
00001010
00000000
00000010
00000000
00000100
00000000
00000001
00000000
00001000
00000000
00000100
00010000
00000100
00010000
00000100
00000000
,  // measure 59
00001000
00000000
00000100
00010000
00000100
00010000
00000100
00000000
00001000
00000000
00000100
00000000
00000110
00000000
00000000
00000000
,  // measure 60
00000011
00000010
00001000
00000010
00000001
00000100
00001000
00010000
,  // measure 61
01000000
10000000
00100000
00010000
00100000
01000000
01010000
00000000
,  // measure 62
10100000
00100000
01000000
00010000
00100000
00001000
00000010
00000001
,  // measure 63
00000100
00000000
00000010
00000000
00001000
00000000
00000100
00000000
00000010
00000000
00000001
00001000
00000001
00001000
00000010
00000000
;

//---------------dance-single - ----------------
#NOTEDATA:;
#CHARTNAME:;
#STEPSTYPE:dance-single;
#DESCRIPTION:;
#CHARTSTYLE:;
#DIFFICULTY:Medium;
#METER:5;
#RADARVALUES:0.345979,0.438305,0.226040,0.040364,0.000000,267.000000,28.000000,5.000000,0.000000,0.000000,0.000000,0.000000,0.000000,0.345979,0.438305,0.226040,0.040364,0.000000,267.000000,28.000000,5.000000,0.000000,0.000000,0.000000,0.000000,0.000000;
#CREDIT:Ben Speirs;
#NOTES:
0000
0000
0000
0000
,
0000
0000
0000
0000
,
0000
0000
0000
0000
,
0000
0000
0000
0000
,
1000
0001
0100
0100
,
0020
0000
0030
0000
1000
0001
1000
0000
,
0001
0010
0001
0001
,
0200
0000
0300
0000
0001
1000
0001
0000
,
1000
1000
0100
1000
,
0010
0000
0000
0000
1000
0001
1000
0000
,
0001
0100
0001
0001
,
0010
0000
1001
1001
,
1001
0000
0100
0000
1000
0000
0010
0010
,
0100
0001
1000
0001
,
1001
0000
0001
1000
,
0010
0000
0010
0000
0100
0100
0100
0000
,
0001
0100
0010
1000
,
0100
1000
0100
0000
1000
0100
0010
0000
,
0001
1000
0010
0100
,
0001
0000
0000
0000
1000
0001
1000
0000
,
0001
0100
0010
1000
,
0001
0100
0001
0000
0100
0010
1000
0000
,
0001
0000
1000
0000
0100
0000
0010
0001
,
1000
0000
1001
1001
,
1001
0000
0000
0000
1000
0010
0100
0010
,
1000
0000
1001
1001
,
1001
0000
0001
1000
,
0010
0000
0010
0000
0100
0001
1000
0000
,
0010
0000
0000
0000
1000
0000
0100
0010
,
0001
0000
0000
0000
0010
0000
0001
1000
,
0010
0000
0000
0000
0100
0000
0010
1000
,
0100
0000
0000
0000
1000
0000
0001
0100
,
0010
0000
0000
0000
0100
0000
0001
1000
,
0100
0000
0000
0000
1000
0000
0100
0010
,
0001
0000
0100
0000
0010
0000
0010
1000
,
0100
0010
0000
0000
,
1001
0000
1000
0000
0010
0000
0010
0100
,
0001
0000
0000
0000
0100
0010
1000
0000
,
0001
0000
0010
0000
0100
0000
0100
0010
,
0001
0000
0000
0000
0010
0001
1000
0001
,
0100
0000
0010
0000
1000
0000
0100
1000
,
0010
0000
0000
0000
1000
0010
0100
0000
,
0001
0000
1000
0000
0100
0000
0100
0010
,
0001
0000
0000
0000
0010
0001
1000
0000
,
1001
1100
1001
0101
,
1000
0001
0100
0000
0001
1000
0100
0000
,
1001
0011
1001
1010
,
0001
1000
0001
1000
0010
0100
0001
0000
,
2000
0000
3000
0000
0010
0010
0010
0000
,
1000
0001
1000
0000
0100
0010
0001
0000
,
0002
0000
0003
0000
0100
0100
0100
0000
,
0001
1000
1001
0110
,
1001
0000
0100
0000
0001
1000
0010
1000
,
0001
0000
1000
0001
,
1001
0000
1000
0000
0010
0100
0010
0100
,
0001
0100
0010
0100
0010
0000
1000
0000
,
1001
0000
0000
0000
1000
0001
0100
0001
,
1000
0000
0010
0100
,
1001
0000
0000
0000
0001
0100
0010
0100
,
0001
0100
0010
0100
0001
0000
1000
0000
,
1010
0001
0010
0011
,
1001
0000
0100
0000
1000
0100
0010
0001
,
0200
0000
0300
0000
0001
1000
0010
0000
,
1000
0001
0010
0000
0000
0001
0001
1000
;

//---------------dance-single - ----------------
#NOTEDATA:;
#CHARTNAME:;
#STEPSTYPE:dance-single;
#DESCRIPTION:;
#CHARTSTYLE:;
#DIFFICULTY:Easy;
#METER:3;
#RADARVALUES:0.206434,0.231590,0.064583,0.032291,0.000000,167.000000,8.000000,4.000000,0.000000,0.000000,0.000000,0.000000,0.000000,0.206434,0.231590,0.064583,0.032291,0.000000,167.000000,8.000000,4.000000,0.000000,0.000000,0.000000,0.000000,0.000000;
#CREDIT:Ben Speirs;
#NOTES:
0000
0000
0000
0000
,
0000
0000
0000
0000
,
0000
0000
0000
0000
,
0000
0000
0000
0000
,
0001
0000
1000
0000
,
0010
0010
0100
0100
,
0010
0000
1000
0000
,
0100
0100
0010
0010
,
0001
0000
0100
0000
,
0001
0001
1000
1000
,
0010
0000
1000
0000
,
0001
0000
0100
0100
,
1001
0000
1000
0000
,
0010
0000
0100
0001
,
1000
0000
0010
0000
,
1000
1000
0100
0000
,
1000
0100
0010
0000
,
0001
0000
1000
0000
,
0001
0100
0010
0000
,
1000
0000
0001
0000
,
1000
1000
0001
0000
,
0001
0001
1000
0000
,
1000
0001
0100
0100
,
0010
0000
0100
0100
,
1001
0000
0001
1000
,
0010
0000
0100
0100
,
0100
0000
0010
1000
,
0001
0000
0010
0000
,
0002
0003
0001
0000
,
2000
3000
1000
0000
,
0010
0010
0100
0100
,
0010
0100
0010
0000
,
2000
3000
1000
0000
,
0002
0003
0001
0000
,
0010
0100
0010
0010
,
0100
0010
0000
0000
,
1001
0000
1000
0000
,
0010
0010
1000
0000
,
0001
0001
0010
0000
,
0001
1000
0001
0000
,
1001
0000
0001
0001
,
0100
0000
0001
1000
,
0100
0000
1000
0010
,
0100
0000
0100
0000
,
0010
0010
1000
1000
,
0010
1000
0000
0000
,
0001
0001
0100
0100
,
0001
0100
0000
0000
,
0001
0001
1000
1000
,
0001
1000
0000
0000
,
0010
0000
1000
0000
,
0001
0000
0100
0100
,
1001
0000
0000
1000
,
0100
0000
1000
1000
,
0001
0000
0000
0001
,
0100
0001
0100
0100
,
1001
0000
0000
0001
,
0010
0000
0001
1000
,
0010
0000
0000
1000
,
0001
1000
0010
0010
,
1001
0000
1000
0000
,
0010
0010
0100
0000
,
0001
0001
1000
0000
,
1000
1000
0100
1001
;

//---------------dance-single - ----------------
#NOTEDATA:;
#CHARTNAME:;
#STEPSTYPE:dance-single;
#DESCRIPTION:;
#CHARTSTYLE:;
#DIFFICULTY:Beginner;
#METER:1;
#RADARVALUES:0.115326,0.154393,0.032291,0.000000,0.000000,96.000000,4.000000,0.000000,0.000000,0.000000,0.000000,0.000000,0.000000,0.115326,0.154393,0.032291,0.000000,0.000000,96.000000,4.000000,0.000000,0.000000,0.000000,0.000000,0.000000,0.000000;
#CREDIT:Ben Speirs;
#NOTES:
0000
0000
0000
0000
,
0000
0000
0000
0000
,
0000
0000
0000
0000
,
0000
0000
0000
0000
,
1000
0000
0000
0000
,
0001
0000
0000
0000
,
1000
0000
1000
0000
,
0001
0000
0001
0000
,
0100
0000
0000
0000
,
0010
0000
0000
0000
,
0100
0000
0100
0000
,
0010
0000
0000
0000
,
1001
0000
0000
0001
,
0001
0000
0000
0000
,
1000
0000
0000
0000
,
0010
0000
0000
0000
,
0100
0000
0100
0000
,
0100
0000
0000
0000
,
0001
0000
0001
0000
,
0001
0000
0000
0000
,
1000
0000
1000
0000
,
1000
0000
0000
0000
,
0010
0000
0010
0000
,
0000
0000
0010
0010
,
0010
0000
0000
1000
,
1000
0000
0000
0000
,
0001
0000
0001
0000
,
0001
0000
0000
0000
,
1001
0000
0000
0000
,
0100
0000
0000
0000
,
0010
0010
0000
0000
,
0010
0010
0000
0000
,
1000
0000
0000
0000
,
0001
0000
0000
0000
,
0100
0100
0000
0000
,
0100
0100
0000
0000
,
1001
0000
0000
0000
,
0001
0000
0001
0000
,
0001
0000
0000
0000
,
1000
0000
1000
0000
,
1000
0000
0000
0000
,
0010
0000
0010
0000
,
0010
0000
0000
0000
,
0100
0000
0000
0000
,
0001
0001
0000
0000
,
1000
0000
1000
0000
,
1000
1000
0000
0000
,
0001
0000
0000
0000
,
0100
0100
0000
0000
,
0100
0100
0000
0000
,
0010
0010
0000
0000
,
0010
0000
1000
1000
,
1000
0000
0000
0001
,
0001
0000
0000
0000
,
0100
0000
0000
0010
,
0010
0000
1000
1000
,
1000
0000
0000
0100
,
0100
0000
0000
0000
,
0010
0000
0000
0001
,
0001
0000
0100
0100
,
0100
0000
0000
0000
,
0001
0000
0000
0000
,
1000
0000
1000
0000
,
1000
0000
0000
1001
;
