#VERSION:0.83;
#TITLE:She's Kerosene;
#SUBTITLE:;
#ARTIST:The Interruptors;
#TITLETRANSLIT:;
#SUBTITLETRANSLIT:;
#ARTISTTRANSLIT:;
#GENRE:;
#ORIGIN:;
#CREDIT:;
#BANNER:Shes Kerosene.png;
#BACKGROUND:Shes Kerosene-bg.png;
#PREVIEWVID:;
#JACKET:jacket.png;
#CDIMAGE:;
#DISCIMAGE:;
#LYRICSPATH:;
#CDTITLE:;
#MUSIC:Shes Kerosene.ogg;
#OFFSET:-0.720000;
#SAMPLESTART:49.029739;
#SAMPLELENGTH:13.994001;
#SELECTABLE:YES;
#BPMS:0.000=168.980;
#STOPS:;
#DELAYS:;
#WARPS:;
#TIMESIGNATURES:0.000=4=4;
#TICKCOUNTS:0.000=4;
#COMBOS:0.000=1;
#SPEEDS:0.000=1.000=0.000=0;
#SCROLLS:0.000=1.000;
#FAKES:;
#LABELS:0.000=Song Start;
#BGCHANGES:-0.600=Shes Kerosene.avi=1.000=0=0=0=StretchNoLoop====,
99999=-nosongbg-=1.000=0=0=0 // don't automatically add -songbackground-
;
#KEYSOUNDS:;
#ATTACKS:
;

//---------------dance-single - ----------------
#NOTEDATA:;
#CHARTNAME:;
#STEPSTYPE:dance-single;
#DESCRIPTION:;
#CHARTSTYLE:;
#DIFFICULTY:Hard;
#METER:8;
#RADARVALUES:0.572361,0.609017,0.222585,0.370975,0.008244,486.000000,459.000000,27.000000,45.000000,0.000000,0.000000,0.000000,0.000000,0.000000,0.572361,0.609017,0.222585,0.370975,0.008244,486.000000,459.000000,27.000000,45.000000,0.000000,0.000000,0.000000,0.000000,0.000000;
#CREDIT:Ben Speirs;
#NOTES:
0000
0000
0000
0000
,
0000
0000
0000
0000
,
0000
0000
0000
0000
,
0000
0000
0000
0000
,
1100
0000
0100
0000
1000
0001
0100
0000
,
0001
0000
1000
0000
0010
1000
0100
0000
,
1000
0000
0001
0000
0010
0001
0100
0000
,
1001
0000
0000
0000
,
0001
1000
0020
0000
0130
0001
0020
0000
,
0130
1000
0020
0000
0130
0001
1000
0001
,
1000
0000
0100
0000
1000
0001
0100
0000
,
0001
0010
0100
1000
0010
0000
1010
0000
,
0001
1000
0020
0000
0130
0001
0020
0000
,
0130
1000
0020
0000
0130
0001
1000
0001
,
1000
0000
0010
0000
1000
0100
0010
0000
,
0001
1000
0010
0100
0001
0000
0101
0000
,
1000
0000
0100
0000
1000
0000
0100
0000
1000
0000
0000
0001
0000
0000
1000
0000
,
0100
0010
0001
0010
0100
0010
1001
0000
,
0001
0010
0100
1000
0020
0000
0130
0000
,
0001
1000
0001
1000
0020
0000
0130
0000
,
0001
0010
0100
1000
0200
0000
1300
0000
,
1000
0010
1000
0010
0200
0000
0301
0000
,
0100
0001
1000
0001
2000
0000
3100
1000
,
0010
1010
0011
1002
,
0103
0000
0001
1000
0010
0000
0100
0001
,
1000
0100
1100
0101
,
1000
0010
0100
0001
0010
0100
0010
0001
,
1000
0010
0100
0001
0020
0000
0130
0000
,
0010
0001
0100
0010
0100
0001
0010
0100
,
1000
0001
0100
0010
2000
0000
3100
0000
,
1000
0010
0100
0001
0010
0100
0010
0001
,
1000
0001
1000
0010
0100
0001
0100
0001
,
1000
0010
0100
0001
0010
0100
0010
0001
,
1000
0000
1010
0101
,
1001
0000
1000
0100
0020
0000
0031
0000
,
1000
0000
0002
0000
0103
0010
2000
0000
,
3001
0000
1000
0010
0100
0100
0001
1000
,
0010
0010
0100
0001
0010
0100
1100
0000
,
0101
0000
1000
0000
0010
1000
0100
0000
,
1000
0100
0010
0001
0200
0000
0310
0000
,
0100
0001
0010
0100
0010
0001
1000
0010
,
0100
0000
0000
0000
,
0010
1000
0200
0000
0310
0001
0100
0000
,
0010
1000
0200
0000
0310
0001
1000
0001
,
2000
0000
3010
0000
1000
0010
0100
0000
,
0001
0010
0100
1000
0001
0000
1001
0000
,
0001
1000
0020
0000
1030
0001
0020
0000
,
0031
1000
0020
0000
1030
0001
1000
0001
,
0200
0000
0301
0000
1000
0100
0020
0000
,
0031
0010
0100
1000
0010
0000
1010
0000
,
0001
0100
0010
0100
0001
0100
0010
0100
,
0002
2000
0000
3003
,
1000
0100
0010
0100
1000
0100
0010
0100
,
2000
0002
0000
3003
,
0001
1000
0010
1000
0001
1000
0010
1000
,
0002
2000
0000
3003
,
1000
0001
0010
0001
1000
0001
0010
0001
,
0200
0320
2030
3001
,
1000
0100
0010
0001
0200
0000
0310
0000
,
1000
0100
0010
0001
0200
0000
0310
0000
,
1000
0100
0010
0001
0200
0000
0310
0000
,
1000
0100
0010
0001
1000
0001
1000
0000
,
0001
0010
0100
1000
0020
0000
0130
0000
,
0001
0010
0100
1000
0020
0000
0130
0000
,
0001
0010
0100
1000
0010
0100
0010
0100
,
0001
0010
0100
1000
1001
0000
1001
0000
,
0110
0000
0001
1000
0020
0000
0130
0000
,
0001
0000
2000
0000
3100
0010
0002
0000
,
1003
0000
0001
1000
0010
0010
0100
0001
,
0010
0010
0100
0010
0001
1000
0010
0000
,
1010
0000
0001
0000
1000
0100
0020
0000
,
0031
0000
1000
0010
0200
0000
0301
0000
,
1000
0001
0100
0001
1000
1000
0010
0100
,
0001
0001
1000
0100
0010
0000
0110
0000
,
0100
1000
0000
0010
1000
0100
0010
0000
,
0001
1000
0000
0001
1000
0010
0100
0000
,
0001
1000
0000
0010
1000
0100
0010
0000
,
0001
1000
0010
0100
0110
0000
1001
0000
,
0001
0100
1000
0100
0001
0010
0011
0000
,
1000
0100
0001
0100
1000
0010
1010
0000
,
1000
0010
0100
0001
0010
0100
0010
0001
,
0100
0000
0000
0000
,
0000
1001
0000
0000
0000
0000
0000
0000
0000
0000
0000
0000
;

//---------------dance-single - ----------------
#NOTEDATA:;
#CHARTNAME:;
#STEPSTYPE:dance-single;
#DESCRIPTION:;
#CHARTSTYLE:;
#DIFFICULTY:Challenge;
#METER:9;
#RADARVALUES:0.706619,0.778189,0.189609,0.032976,0.140146,600.000000,577.000000,23.000000,4.000000,0.000000,0.000000,0.000000,0.000000,0.000000,0.706619,0.778189,0.189609,0.032976,0.140146,600.000000,577.000000,23.000000,4.000000,0.000000,0.000000,0.000000,0.000000,0.000000;
#CREDIT:Ben Speirs;
#NOTES:
0000
0000
0000
0000
,
0000
0000
0000
0000
,
0000
0000
0000
0000
,
0000
0000
0000
0000
,
1001
0000
0001
0010
0100
0010
0100
0000
,
1000
0000
1000
0010
0100
0010
0100
0000
,
0001
0000
0100
0010
0100
0001
0010
0100
,
1000
0000
0000
0000
,
0001
0100
1000
0100
0001
0010
0001
0010
,
0001
0100
1000
0100
0001
0010
0001
0010
,
0200
0000
1300
0000
0010
1000
0100
0010
,
0001
1000
0001
1000
0010
0100
0001
0000
,
1000
0100
0001
0100
1000
0010
1000
0010
,
1000
0100
0001
0100
1000
0010
1000
0010
,
0200
0000
0301
0000
0100
0001
0010
0100
,
1000
0001
1000
0001
0100
0010
1000
0000
,
0001
0000
0100
0010
0100
0000
0001
0100
0001
0000
1000
0100
0000
0100
0010
0000
,
0001
0000
0100
0001
0100
0000
0010
1000
0010
0000
0100
0000
1001
0000
0000
0000
,
1100
0100
0010
0001
1000
0010
0100
0001
,
1000
0010
1000
0010
0100
0001
0010
0000
,
0011
0010
0100
0010
0001
1000
0010
0100
,
0001
1000
0001
1000
0010
0100
0001
0000
,
1010
0010
1000
0001
1000
0010
0100
0001
,
0010
0100
0010
0100
1000
0010
0100
0001
,
1000
0001
1000
0010
0100
0001
0010
0100
,
1000
0100
0010
0001
0100
0010
1001
0000
,
1000
0010
0100
0010
1000
0100
0010
0100
,
1000
0010
0100
0002
0000
1003
0000
0001
,
1000
0010
0100
0001
0010
0100
0010
0001
,
1000
0010
0100
0010
1000
0001
1000
0000
,
0001
0100
1000
0100
0010
1000
0010
0000
,
1000
0100
0001
0100
0010
0001
0010
0000
,
0001
0010
0100
1000
0010
0100
0010
1000
,
0001
0000
1100
0101
,
1000
0000
0010
0000
0100
0000
0001
0100
0001
0000
0000
0000
0100
0000
0000
0000
,
0010
0000
1000
0000
0100
0000
0010
0000
0001
0000
1000
0001
1000
0000
0000
0000
,
0001
1000
0010
0100
0001
0010
0100
0010
,
0001
0001
1000
1000
0010
1000
0001
0000
,
0100
0000
0010
0000
1000
0000
0100
0000
0010
0100
0010
0000
0001
0000
0000
0000
,
0010
0000
0100
0000
1000
0000
0001
0000
0100
0001
0100
0000
0010
0000
0000
0000
,
0100
0001
0010
0100
1000
0010
0100
0010
,
1000
1000
0001
1000
0010
0000
1001
0000
,
1000
0000
0100
0010
0100
0000
0000
0000
1000
0000
0010
0100
0010
0000
0000
0000
,
1000
0000
0100
0010
0100
0000
0000
0000
1000
0000
0010
0100
0010
0000
1000
0000
,
0100
0010
0001
1000
0001
1000
0010
0100
,
0001
0010
0100
1000
0001
0000
1001
0000
,
0001
0000
0100
0010
0100
0000
0000
0000
0001
0000
0010
0100
0010
0000
0000
0000
,
0001
0000
0100
0010
0100
0000
0000
0000
0001
0000
0010
0100
0010
0000
0001
0000
,
1000
0010
0100
0001
0010
0100
0010
0001
,
1000
0010
0100
0001
1000
0000
1001
0000
,
0001
0000
0010
0100
0010
0000
0001
0000
1000
0000
0010
0000
0100
0000
0001
0000
,
0010
0100
1000
0010
0000
0100
0000
0001
,
0000
0000
1000
0100
1000
0000
0010
0000
0100
0000
0010
0000
1000
0000
0100
0000
,
0010
0110
0000
0110
0000
1001
0000
1001
,
0000
0000
0001
1000
0001
0000
1000
0000
0010
0000
0100
0000
0001
0000
1000
0000
,
0010
0000
0000
0100
0010
0000
1000
0000
0100
0000
0000
0010
0100
0000
1000
0000
,
0001
0000
1000
0100
1000
0000
0010
0000
0100
0000
0001
0100
0001
0000
1000
0000
,
0010
0100
0010
0100
0001
0010
0100
0000
,
1000
0100
0010
0001
0100
0010
0100
0001
,
1000
0010
0100
0001
0010
0100
1000
0001
,
1000
0010
0100
0010
1000
0001
0010
0100
,
1000
0010
0100
0001
1000
0010
1000
0001
,
0010
0100
0010
0001
1000
0010
0100
0001
,
0010
0100
0010
0001
1000
0010
0200
0000
,
0301
0100
0010
1000
0100
0010
0001
1000
,
0010
0010
0100
0100
0110
0000
1001
0000
,
0001
0000
1000
0000
0010
0000
0100
0001
1000
0000
0000
0000
0010
0000
0000
0000
,
1000
0000
0100
0000
0010
0000
0001
0000
1000
0000
0010
1000
0100
0000
0000
0000
,
1000
0010
0100
0001
0010
0100
0010
0001
,
0100
0100
0010
0010
1000
0001
0100
0000
,
0001
0000
0100
0000
0010
0000
1000
0000
0100
1000
0100
0000
0010
0000
0000
0000
,
0001
0000
1000
0000
0010
0000
0100
0000
0001
0100
0001
0000
1000
0000
0000
0000
,
0010
1000
0001
0010
0100
1000
0010
0100
,
0101
0101
0000
1010
1010
0000
1001
0000
,
1000
1000
0100
1000
0010
0100
0001
1000
,
0010
0010
0100
0001
0010
0100
0010
0001
,
1000
1000
0100
1000
0010
0100
0001
1000
,
0001
0001
0100
0001
1000
0010
0100
0000
,
0001
0100
0001
0000
1000
0000
0001
0000
0100
0000
0010
0000
1000
0000
0001
0000
,
1000
0100
1000
0000
0001
0000
1000
0000
0010
0000
0100
0000
0001
0000
1000
0000
,
0010
0100
0010
0000
1000
0000
0001
1000
0001
0000
1000
0000
0010
0000
0100
0000
,
0001
0000
0000
0000
,
0000
1001
0000
0000
0000
0000
0000
0000
0000
0000
0000
0000
;

//---------------dance-single - ----------------
#NOTEDATA:;
#CHARTNAME:;
#STEPSTYPE:dance-single;
#DESCRIPTION:;
#CHARTSTYLE:;
#DIFFICULTY:Medium;
#METER:6;
#RADARVALUES:0.403950,0.473680,0.247317,0.090683,0.004122,343.000000,313.000000,30.000000,11.000000,0.000000,0.000000,0.000000,0.000000,0.000000,0.403950,0.473680,0.247317,0.090683,0.004122,343.000000,313.000000,30.000000,11.000000,0.000000,0.000000,0.000000,0.000000,0.000000;
#CREDIT:Ben Speirs;
#NOTES:
0000
0000
0000
0000
,
0000
0000
0000
0000
,
0000
0000
0000
0000
,
0000
0000
0000
0000
,
1010
0010
0100
0100
,
0001
1000
0100
0100
,
0010
0001
1000
0010
,
1001
0000
0000
0000
,
0001
1100
0001
1100
,
0001
1100
0001
1100
,
0001
1000
0010
0100
,
0100
0010
1000
0001
,
1000
0101
1000
0101
,
1000
0101
1000
0101
,
0001
1000
0010
0100
,
0100
0001
0010
0100
,
2000
3000
0100
0100
,
0020
0030
0002
0003
,
0000
1000
0000
0001
0000
0100
0000
0010
,
0000
0010
0000
1000
0000
0100
0000
1000
,
0000
0010
0000
0010
0000
0100
0000
0001
,
0000
1000
0000
0100
0000
0010
0000
0010
,
0000
0001
0000
1000
0000
0001
0000
1000
,
0000
1000
0000
0001
0000
0001
0000
1000
,
0000
0010
0000
0100
0000
0001
0000
1000
,
0000
1000
0000
0001
0000
0001
0000
0100
,
0000
0000
0010
1000
0010
0000
0100
0000
,
0001
0100
0001
1000
0000
0000
0001
0000
,
1000
0000
0100
1000
0100
0000
1000
0000
,
0001
0010
0001
1000
0000
0000
0001
0000
,
1000
1000
0010
0010
,
0100
0100
0001
0001
,
1000
0100
1000
0000
0001
0010
0001
0000
,
1000
0000
0110
1001
,
0000
0000
0001
0100
0010
0000
0000
0000
,
1000
0000
0001
0000
1000
0100
0010
0000
,
0000
0001
1000
1000
,
0010
0000
0100
0000
0001
1000
0001
0000
,
0000
0000
1000
0000
0100
1000
0001
0000
,
0000
0000
1000
0000
0010
0100
0001
0000
,
0000
0100
0010
0010
,
1000
0100
1000
0000
0001
0000
0001
0000
,
0000
1100
0000
0101
,
0000
1010
0000
1001
,
0001
1000
0010
0100
,
0100
0000
0001
1000
0001
0000
1000
0000
,
0000
0011
0000
1010
,
0000
1100
0000
1001
,
0001
1000
0010
0100
,
0100
0000
0001
1000
0001
0000
1000
0000
,
0001
0100
0001
0100
0001
0100
0001
0100
,
0002
0200
0000
0303
,
1000
0100
1000
0100
1000
0100
1000
0100
,
2000
0200
0000
3300
,
1000
0010
1000
0010
1000
0010
1000
0010
,
2000
0020
0000
3030
,
0001
0010
0001
0010
0001
0010
0001
0010
,
0002
0020
0000
0033
,
0001
0000
0010
0000
0100
1000
0100
0000
,
1000
0000
0010
0000
0100
0001
0100
0000
,
0010
0000
1000
0000
0001
1000
0001
0000
,
1000
0100
0010
0000
,
0001
0010
0001
0000
1000
0000
1000
0000
,
0001
0100
0001
0000
1000
0000
1000
0000
,
0010
0100
0001
1000
,
0001
0010
0100
1000
0001
0000
1001
0000
,
0000
0000
1000
0010
0100
0000
0001
0000
,
0000
0000
0100
0000
0010
1000
0001
0000
,
0000
1000
0001
0010
,
0100
0000
1000
0000
0010
0100
0001
0000
,
0000
0000
0100
0000
0010
1000
0001
0000
,
0000
0000
1000
0000
0100
1000
0001
0000
,
0000
1000
0001
0100
,
0010
0010
0000
0100
0100
0000
0110
0000
,
1001
0000
0000
0001
0000
0000
1000
0000
,
1100
0000
0000
0100
0000
0000
0010
0000
,
0110
0000
0000
0100
0000
0000
1000
0000
,
1010
0000
0010
1000
0001
0000
0100
0000
,
0101
0000
0000
1000
0000
0000
0100
0000
,
1100
0000
0000
1000
0000
0000
0010
0000
,
0110
0000
0010
0000
1000
0100
0010
0000
,
0001
0000
0000
0000
,
0000
1001
0000
0000
0000
0000
0000
0000
0000
0000
0000
0000
;

//---------------dance-single - ----------------
#NOTEDATA:;
#CHARTNAME:;
#STEPSTYPE:dance-single;
#DESCRIPTION:;
#CHARTSTYLE:;
#DIFFICULTY:Easy;
#METER:4;
#RADARVALUES:0.252027,0.270674,0.024732,0.032976,0.004122,214.000000,211.000000,3.000000,4.000000,0.000000,0.000000,0.000000,0.000000,0.000000,0.252027,0.270674,0.024732,0.032976,0.004122,214.000000,211.000000,3.000000,4.000000,0.000000,0.000000,0.000000,0.000000,0.000000;
#CREDIT:Ben Speirs;
#NOTES:
0000
0000
0000
0000
,
0000
0000
0000
0000
,
0000
0000
0000
0000
,
0000
0000
0000
0000
,
1001
0000
1000
0000
,
0010
0000
0010
0000
,
1000
0000
0100
0010
,
0001
0000
0000
0000
,
0000
1000
0000
0001
,
0000
1000
0000
0010
,
0010
0000
0100
0100
,
0001
1000
0001
0001
,
0000
1000
0000
0001
,
0000
1000
0000
0010
,
0010
0000
0100
0100
,
0001
1000
0001
0001
,
1000
0000
0000
0000
,
0100
0000
0000
0000
,
1001
0000
1000
0000
,
0010
0000
0010
0000
,
1000
1000
0100
0000
,
0010
0010
0001
0000
,
1000
0000
0001
0000
,
0100
0000
0100
0000
,
0001
1000
0010
0000
,
1000
0001
0010
0000
,
0100
0100
1000
1000
,
0100
0000
0100
0000
,
1000
1000
0010
0010
,
1000
0000
1000
0000
,
0001
0001
0010
0010
,
0001
0000
0010
0000
,
0001
1000
0001
1000
,
0010
0000
0100
0100
,
0000
0001
0100
0000
,
0000
0010
1000
0100
,
0000
0000
1000
0001
,
1000
1000
0100
0100
,
0000
1000
0010
0100
,
0000
0001
0010
0100
,
0000
0000
0010
0010
,
0001
1000
0010
0010
,
0000
1000
0000
0001
,
0000
0100
0000
0010
,
0010
0000
0100
0001
,
1000
1000
0100
0100
,
0000
1000
0000
0001
,
0000
1000
0000
0010
,
0010
0000
0100
0100
,
0001
1000
0010
0010
,
0100
0000
0100
0000
,
0100
0002
0000
0003
,
0001
0000
0001
0000
,
0001
2000
0000
3000
,
1000
0000
1000
0000
,
1000
0020
0000
0030
,
0010
0000
0010
0000
,
0010
0200
0000
0300
,
0001
0001
0000
0100
,
0010
0010
0000
1000
,
0100
0100
0000
1000
,
0001
1000
0000
0001
,
0100
0100
0010
0000
,
1000
1000
0100
0000
,
1000
0100
0010
0001
,
0100
0100
0100
0000
,
0001
1000
0010
0000
,
1000
0001
0010
0000
,
0001
0000
1000
0000
,
0100
0100
0010
0010
,
0001
0000
1000
0001
,
0100
0000
0001
1000
,
0010
0000
1000
0000
,
0010
0010
0100
0100
,
0001
0000
0000
0001
0000
0000
0001
0000
,
1000
0000
0000
1000
0000
0000
1000
0000
,
0010
0000
1000
0100
,
0010
0010
0001
1000
,
0100
0000
0000
0100
0000
0000
0100
0000
,
1000
0000
0000
1000
0000
0000
1000
0000
,
0001
0000
0001
1000
,
0010
0000
0000
0000
,
0000
1001
0000
0000
0000
0000
0000
0000
0000
0000
0000
0000
;

//---------------dance-single - ----------------
#NOTEDATA:;
#CHARTNAME:;
#STEPSTYPE:dance-single;
#DESCRIPTION:;
#CHARTSTYLE:;
#DIFFICULTY:Beginner;
#METER:2;
#RADARVALUES:0.136613,0.203006,0.041219,0.000000,0.004122,116.000000,111.000000,5.000000,0.000000,0.000000,0.000000,0.000000,0.000000,0.000000,0.136613,0.203006,0.041219,0.000000,0.004122,116.000000,111.000000,5.000000,0.000000,0.000000,0.000000,0.000000,0.000000,0.000000;
#CREDIT:Ben Speirs;
#NOTES:
0000
0000
0000
0000
,
0000
0000
0000
0000
,
0000
0000
0000
0000
,
0000
0000
0000
0000
,
1001
0000
0000
0000
,
0010
0000
0000
0000
,
1000
0000
0000
0000
,
0100
0000
0000
0000
,
0000
1000
0000
1000
,
0000
1000
0000
0000
,
0010
0000
0000
0000
,
0010
0000
0000
0000
,
0000
0100
0000
0100
,
0000
0100
0000
0000
,
0000
0000
0000
0000
,
0001
0001
0001
0000
,
1001
0000
0000
0000
,
0000
0000
0000
0000
,
1000
0000
0000
0000
,
0010
0000
0010
0000
,
0010
0000
0000
0000
,
0100
0000
0100
0000
,
0100
0000
0000
0000
,
0001
0000
0001
0000
,
0001
0000
0000
0000
,
1000
0000
0000
0000
,
0010
0000
0010
0000
,
0010
0000
0000
0000
,
1000
0000
1000
0000
,
1000
0000
0000
0000
,
0001
0000
0001
0000
,
0001
0000
0000
0000
,
0100
0000
0100
0000
,
0100
0000
0000
0000
,
0000
0001
0001
0000
,
0000
0000
1000
1000
,
0000
0000
0000
0000
,
0010
0000
0010
0000
,
0000
0100
0100
0000
,
0000
0001
0001
0000
,
0000
0000
1000
0000
,
1000
0000
0000
0000
,
0000
0010
0000
0010
,
0000
0010
0000
0000
,
1000
0000
0000
0000
,
0001
0000
0000
0000
,
0000
0100
0000
0100
,
0000
0100
0000
0000
,
0000
0000
0000
0000
,
0001
0001
0001
0000
,
1001
0000
0000
0000
,
0000
0000
0000
0000
,
1000
0000
0000
0000
,
0000
0000
0000
0000
,
0010
0000
0010
0000
,
0010
0000
0000
0000
,
0010
0000
0010
0000
,
0010
0000
0000
0000
,
1000
1000
0000
0000
,
0100
0100
0000
0000
,
1000
0000
0000
0000
,
0001
0000
0000
0000
,
0001
0001
0000
0000
,
0100
0100
0000
0000
,
0001
0000
0001
0000
,
1000
0000
0000
0000
,
1001
0000
0000
0000
,
0000
0010
0010
0010
,
0000
0000
0000
0000
,
1000
1000
1000
0000
,
1000
0000
0000
0000
,
0001
0000
0001
0000
,
0001
0000
0000
0000
,
0100
0100
0000
0000
,
0001
0000
0001
0000
,
0001
0000
0001
0000
,
0001
0000
0000
0000
,
1000
1000
1000
0000
,
1000
0000
1000
0000
,
1000
0000
1000
0000
,
0000
0000
0010
0000
,
0010
0000
0000
0000
,
0000
1001
0000
0000
0000
0000
0000
0000
0000
0000
0000
0000
;

//---------------dance-double - ----------------
#NOTEDATA:;
#CHARTNAME:;
#STEPSTYPE:dance-double;
#DESCRIPTION:;
#CHARTSTYLE:;
#DIFFICULTY:Challenge;
#METER:9;
#RADARVALUES:0.661866,0.710520,0.329755,0.057707,0.090683,562.000000,522.000000,40.000000,7.000000,0.000000,0.000000,0.000000,0.000000,0.000000,0.661866,0.710520,0.329755,0.057707,0.090683,562.000000,522.000000,40.000000,7.000000,0.000000,0.000000,0.000000,0.000000,0.000000;
#CREDIT:Ben Speirs;
#NOTES:
// measure 0
00000000
00000000
00000000
00000000
,  // measure 1
00000000
00000000
00000000
00000000
,  // measure 2
00000000
00000000
00000000
00000000
,  // measure 3
00000000
00000000
00000000
00000000
,  // measure 4
00011000
00000000
00010000
00000000
00100000
10000000
00100000
00000000
,  // measure 5
00010000
00000000
00001000
00000000
00000010
00000001
00000010
00000000
,  // measure 6
00001000
00010000
00100000
10000000
,  // measure 7
20020000
00000000
00000000
30030000
,  // measure 8
10000000
01000000
00010000
00000000
00001000
00000100
00000001
00000000
,  // measure 9
00000001
00000100
00001000
00000000
00010000
01000000
10000000
00000000
,  // measure 10
00010000
00000000
10000000
00000000
00100000
01000000
00100000
00000000
,  // measure 11
10000000
01000000
00100000
00010000
00001000
00000000
00001010
00000000
,  // measure 12
00000001
00000010
00001000
00000000
00010000
00100000
10000000
00000000
,  // measure 13
10000000
00100000
00010000
00000000
00001000
00000010
00000001
00000000
,  // measure 14
00000100
00000001
00001000
00000000
00000010
00000000
00000110
00000000
,  // measure 15
00000001
00000100
00000010
00001000
00000100
00000000
00001100
00000000
,  // measure 16
00000001
00000000
00000010
00000000
00000100
00000000
00000010
00000000
00000001
00000000
00001000
00000010
00000000
00000010
00000100
00000000
,  // measure 17
00000010
00001000
00000100
00010000
00001000
00100000
00110000
00000000
,  // measure 18
00010000
10000000
00010000
10000000
00100000
01000000
00100000
01000000
,  // measure 19
00010000
00100000
01000000
10000000
00100000
01000000
00100000
00000000
,  // measure 20
10000000
00100000
01000000
00100000
01000000
00010000
01000000
00010000
,  // measure 21
10000000
01000000
00100000
00010000
01000000
00000000
01010000
00000000
,  // measure 22
01000000
00100000
00010000
00000000
00001000
00010000
00000100
00000000
,  // measure 23
00000010
00000100
00001000
00000000
00000100
00010000
00011000
00000000
,  // measure 24
00010000
00001000
00000100
00000010
00000100
00000010
00001000
00000100
,  // measure 25
00000010
00000100
00000010
00000001
00001000
00000000
00001001
00000000
,  // measure 26
00000001
00001000
00000010
00000100
00000001
00000010
00000100
00001000
,  // measure 27
00000010
00000100
00001000
00010000
00001000
00010000
00100000
10000000
,  // measure 28
01000000
00100000
01000000
00100000
00010000
10000000
00100000
01000000
,  // measure 29
00010000
00100000
00001000
00100000
00010000
10000000
00100000
01000000
,  // measure 30
00010000
10000000
01000000
00010000
00000100
00000010
00000001
00001000
,  // measure 31
00000001
00001000
00000010
00000100
00000001
00000010
00000100
00000000
,  // measure 32
00000010
00000001
00000100
00000010
00001000
00000100
00000010
00000001
,  // measure 33
00001000
00000000
00001010
00010100
,  // measure 34
00000100
00000000
00000000
00000000
00010000
00000000
00001000
00100000
00001000
00000000
00000000
00000000
00100000
00000000
00000000
00000000
,  // measure 35
00010000
00000000
00000000
00000000
01000000
00000000
00100000
00000000
10000000
00000000
01000000
10000000
01000000
00000000
00000000
00000000
,  // measure 36
10000000
00000000
00100000
01000000
00010000
10000000
00010000
10000000
,  // measure 37
01000000
00100000
00010000
01000000
00100000
00010000
00001000
00000000
,  // measure 38
00010000
00000000
00000000
00000000
00000100
00000000
00001000
00000000
00000010
00000000
00000100
00000010
00000100
00000000
00000000
00000000
,  // measure 39
00000001
00000000
00000100
00000000
00000010
00000000
00001000
00000000
00000001
00000000
00001000
00000100
00001000
00000000
00000000
00000000
,  // measure 40
00000001
00001000
00000010
00000100
00000001
00000010
00000100
00001000
,  // measure 41
00000010
00000010
00001000
00001000
00000100
00000000
00001100
00000000
,  // measure 42
00000100
00001000
00010100
00000000
00010000
00001000
00010100
00000000
,  // measure 43
00000100
00001000
00010100
00000000
00010000
00001000
00010200
00000000
,  // measure 44
00010300
00001000
00100000
00000000
00010000
01000000
00100000
00000000
,  // measure 45
10000000
01000000
00100000
00010000
01000000
00000000
01001000
00000000
,  // measure 46
00100000
00010000
00101000
00000000
00001000
00010000
00101000
00000000
,  // measure 47
00100000
00010000
00101000
00000000
00001000
00010000
00201000
00000000
,  // measure 48
00301000
00010000
00000100
00000000
00001000
00000010
00000100
00000000
,  // measure 49
00000001
00000010
00000100
00001000
00000010
00000000
00010010
00000000
,  // measure 50
00010100
00000000
00010000
00001000
00010000
00000000
00000100
00000000
00010000
00000000
00001000
00000000
00010000
00000000
00000100
00000000
,  // measure 51
00010000
00001000
00100000
00001000
00000000
00010000
00000000
00000100
,  // measure 52
00000000
00000000
00010000
00001000
00010000
00000000
00001000
00000000
01000000
00000000
00001000
00000000
00010000
00000000
00000100
00000000
,  // measure 53
00010000
00001000
00000000
01000000
00000000
01001000
00000000
00010100
,  // measure 54
00000000
00000000
00001000
00010000
00001000
00000000
00010000
00000000
00000100
00000000
00010000
00000000
00001000
00000000
00010000
00000000
,  // measure 55
00001000
00000000
00000000
00100000
00001000
00000000
00010000
00000000
00001000
00000000
00000000
00100000
00001000
00000000
00010000
00000000
,  // measure 56
00001000
00000000
00010000
00001000
00010000
00000000
00001000
00000000
00100000
00000000
00010000
00100000
00010000
00000000
00100000
00000000
,  // measure 57
00020000
00000000
00000000
00000000
20000000
00030000
00000000
00000000
30200000
00000000
00000000
00000000
01300000
00000000
00000000
00000000
,  // measure 58
00010000
01000000
00100000
10000000
01000000
00100000
01000000
00100000
,  // measure 59
00010000
01000000
00100000
10000000
01000000
00100000
01000000
00100000
,  // measure 60
00010000
10000000
00100000
00010000
,  // measure 61
00001000
00000010
00000001
00001001
,  // measure 62
00000001
00000100
00000010
00001000
00000100
00001000
00000100
00001000
,  // measure 63
00000001
00000100
00000010
00001000
00000100
00001000
00000100
00000000
,  // measure 64
00001000
00000001
00000100
00001000
00010000
00001000
00100000
00010000
,  // measure 65
01000000
01000000
00100000
00100000
01100000
00000000
10010000
00000000
,  // measure 66
10000000
00000000
01000000
00000000
00010000
00000000
00001000
00010000
00001000
00000000
00000000
00000000
00011000
00000000
00000000
00000000
,  // measure 67
00010000
00000000
00001000
00000000
00000100
00000000
00000001
00000000
00001000
00000000
00000010
00000100
00000010
00000000
00000000
00000000
,  // measure 68
00000100
00000001
00000010
00000100
00001000
00000010
00000100
00001000
,  // measure 69
00010000
00010000
00001000
00001000
00100000
00010000
01000000
00000000
,  // measure 70
00010000
00000000
01000000
00000000
00100000
00000000
00010000
00000000
00001000
00000000
00010000
00001000
00010000
00000000
00000000
00000000
,  // measure 71
00000100
00000000
00001000
00000000
00000100
00000000
00010000
00000000
00000010
00000000
00000100
00000010
00000100
00000000
00000000
00000000
,  // measure 72
00000001
00000010
00000100
00000000
00001000
00000100
00010000
00000000
,  // measure 73
00011000
00011000
00000000
00101000
00101000
00000000
10010000
00000000
,  // measure 74
10100000
00100000
01000000
00010000
00100000
01000000
10000000
00100000
,  // measure 75
01100000
01000000
00010000
00100000
01000000
10000000
00010000
00000000
,  // measure 76
01010000
01000000
00100000
00010000
00001000
00010000
00000100
00001000
,  // measure 77
00001010
00000010
00000100
00000001
00000010
00000100
00001000
00000000
,  // measure 78
00000001
00000100
00000001
00000000
00000100
00000000
00000010
00000000
00001000
00000000
00010000
00000000
00100000
00000000
01000000
00000000
,  // measure 79
10000000
01000000
10000000
00000000
01000000
00000000
00100000
00000000
00010000
00000000
00001000
00000000
00000100
00000000
00000010
00000000
,  // measure 80
00000001
00000100
00000001
00000000
00000100
00000000
00000010
00000100
00000010
00000000
00000100
00000000
00000001
00000000
00001000
00000000
,  // measure 81
00001100
00000000
00000000
00000000
,  // measure 82
00000000
00011000
00000000
00000000
00000000
00000000
00000000
00000000
00000000
00000000
00000000
00000000
;
