#TITLE:Electric Eye;
#SUBTITLE:;
#ARTIST:As I Lay Dying;
#TITLETRANSLIT:;
#SUBTITLETRANSLIT:;
#ARTISTTRANSLIT:;
#GENRE:Screamo Tribute;
#CREDIT:;
#BANNER:Electric Eye.png;
#BACKGROUND:Electric Eye-bg.png;
#LYRICSPATH:;
#CDTITLE:;
#MUSIC:Electric Eye.ogg;
#OFFSET:-0.157000;
#SAMPLESTART:49.356823;
#SAMPLELENGTH:13.714000;
#SELECTABLE:YES;
#BPMS:0.000000=195.000000
;
#STOPS:
;
#BGCHANGES:7.500=Electric Eye.avi=1.000=0=0=1=====,
99999=-nosongbg-=1.000=0=0=0 // don't automatically add -songbackground-
;
#KEYSOUNDS:;
#ATTACKS:;

//---------------dance-single - ----------------
#NOTES:
     dance-single:
     :
     Hard:
     9:
     0.674449,0.736179,0.348281,0.386979,0.000000,515.000000,45.000000,50.000000,0.000000,0.000000,0.000000,0.674449,0.736179,0.348281,0.386979,0.000000,515.000000,45.000000,50.000000,0.000000,0.000000,0.000000:
0000
0000
0000
0000
,
0000
0000
0000
0000
,
0000
0000
0000
0000
,
0000
0000
0000
0000
0000
1001
0000
0110
,
0000
0000
0000
0000
0000
0000
0000
1010
,
0000
0000
0000
0000
0000
0000
0000
0101
,
0000
1000
0100
1000
0010
0100
0001
0010
,
0100
1000
0010
0100
0001
1000
0010
0100
,
0000
0001
1000
0100
0010
0001
1000
0010
,
0100
0001
0010
0100
1000
0010
0100
0001
,
0000
0001
0010
0100
0010
0001
1000
0010
,
0100
0000
0001
2000
0000
0000
3100
0020
,
0000
0000
0031
1000
0100
0010
0001
1000
,
0010
0100
0001
0010
0100
1000
0010
0100
,
0000
0100
0001
1000
0010
0100
0001
0010
,
0100
0000
1000
0002
0000
0000
0103
0020
,
0000
0000
1030
0000
0001
0100
0010
1000
,
0001
0100
0101
1100
,
0001
0000
1000
0100
0010
0001
1000
0000
,
0010
0100
0110
1001
,
0100
0000
0001
0010
0100
1000
0001
0000
,
1000
0010
1010
0101
,
1000
0000
0001
0010
0100
1000
0001
0000
,
0100
0000
0010
0000
1000
0100
0010
0001
,
0000
1000
0100
1000
0001
1000
0010
1000
,
0100
1000
0010
1000
0001
1000
0010
1000
,
0100
1000
0010
1000
0001
1000
0010
1000
,
0100
1000
0010
0100
0000
0100
0010
1000
,
0000
0001
0010
0001
1000
0001
0100
0001
,
0010
0001
0100
0001
1000
0001
0100
0001
,
0010
0001
0100
0001
1000
0001
0100
0001
,
0010
0100
0010
0001
1000
0010
0100
0001
,
0000
0000
0100
0010
0100
0010
0100
0010
,
0100
0001
0010
0100
1000
0010
0100
0001
,
0000
0000
1000
0100
1000
0100
1000
0100
,
1000
0010
0100
0001
0010
0100
1000
0001
,
0000
0000
0100
0010
0100
0010
0100
0010
,
0100
0001
0010
0100
1000
0010
0100
0001
,
1000
0100
0010
0001
1000
0010
0100
0000
,
2002
0000
0000
3003
,
0010
1000
0002
0000
0013
0020
0000
0130
,
0200
0000
1300
2000
0000
3010
0100
0000
,
0001
1000
0020
0000
0130
0200
0000
0301
,
0002
1000
0100
0013
,
0100
0001
2000
0000
3100
0200
0000
0310
,
0020
0000
0031
0002
0000
0103
0010
0000
,
1000
0001
0200
0000
0310
0020
0000
1030
,
2002
0000
0000
0000
,
0000
0000
0000
0000
3003
0000
0000
0110
,
0000
0000
0001
0100
0010
1000
0100
0010
,
0000
0010
0001
1000
0010
0100
0001
0000
,
1000
0100
0010
0001
0100
1000
0001
0010
,
1000
0100
0010
0001
1000
0000
0010
0000
,
0100
0000
0001
0100
0010
1000
0100
0010
,
0001
0010
0100
1000
0010
0100
0001
0000
,
1000
0100
0010
0001
0010
0100
1000
0001
,
0100
0010
1000
0001
0100
0000
0010
0000
,
1000
0100
1000
0001
0100
0010
1000
0100
,
0010
0001
0010
0100
1000
0001
0100
0000
,
0010
0100
0001
0010
1000
0010
0001
0100
,
1000
0100
0001
1000
0010
0000
0100
0000
,
0001
0010
1000
0010
0001
0010
1000
0010
,
0001
0100
1000
0100
0001
0100
1000
0100
,
0001
0010
0100
1000
0010
0100
0001
0010
,
1000
0010
0001
1000
0010
0000
0100
0001
,
0000
0101
1001
1100
,
0011
0000
1100
0000
1001
0000
0010
0100
,
0000
0101
0110
1010
,
1100
0000
0110
0000
0011
0000
1000
0001
,
0000
0110
1001
0110
,
1001
0000
1100
0000
1001
0000
0100
0010
,
0000
1000
0100
1000
0010
0100
0001
0010
,
0100
1000
0010
0100
0001
0010
0100
1000
,
0000
0000
0000
0000
,
0000
0000
0000
0000
0000
0000
0000
1001
,
0000
0000
0000
0000
,
0000
0000
0000
0000
0000
0101
0000
1100
,
0000
0000
0000
0000
0000
0000
0000
1001
,
0000
0000
0000
0000
0000
0000
0000
0110
,
0000
0000
0000
0000
0000
0000
0000
1000
,
0010
1000
0001
0100
0010
1001
0000
0000
,
0100
0001
2000
0000
3100
0200
0000
0310
,
0020
0000
0031
0002
0000
0103
0010
0000
,
1000
0001
0200
0000
0310
0020
0000
1030
,
2000
0001
0010
3100
,
0010
1000
0002
0000
0013
0020
0000
0130
,
0200
0000
1300
2000
0000
3010
0100
0000
,
0001
1000
0020
0000
0130
0200
0000
0301
,
0002
0010
0100
1003
,
0010
1000
0002
0000
0103
2000
0000
3100
,
0020
0000
0130
2000
0000
3100
0002
0000
,
0103
0100
0020
0000
1030
0200
0000
1300
,
0020
0001
0100
1030
,
0100
0001
2000
0000
3010
0002
0000
0013
,
0200
0000
0310
0002
0000
0013
2000
0000
,
3010
0010
0110
0000
0000
0101
0000
0000
,
0100
0001
1001
0000
0000
0110
0000
0000
,
0011
0000
1100
0000
0000
1001
0000
0000
,
0220
0000
0000
0000
,
0000
0000
0030
0000
,
0000
0300
0000
0000
0000
0000
0000
0000
;

//---------------dance-single - ----------------
#NOTES:
     dance-single:
     :
     Challenge:
     12:
     0.980715,1.000000,0.201229,0.317323,0.789437,820.000000,26.000000,41.000000,0.000000,0.000000,0.000000,0.980715,1.000000,0.201229,0.317323,0.789437,820.000000,26.000000,41.000000,0.000000,0.000000,0.000000:
0000
0000
0000
0000
,
0000
0000
0000
0000
,
0000
0000
0000
0000
,
0000
0000
0000
0000
0000
1010
0000
0101
,
0000
0000
0000
0000
0000
0000
0000
1100
,
0000
0000
0000
0000
0000
0000
0000
0011
,
0000
0000
1000
0010
1000
0001
0100
0010
1000
0100
0010
0001
0100
0010
0100
0010
,
1000
0100
0010
0001
0100
0010
1000
0001
1000
0000
0010
0000
0100
0000
0001
0000
,
0000
0000
1000
0000
0100
0010
0100
0000
1000
0000
0001
0000
0100
0010
0100
0000
,
0001
0000
1000
0000
0010
1000
0010
0000
0100
0000
0001
0000
1000
0000
0020
0000
,
0000
0000
0130
0000
0001
1000
0001
0000
0100
0000
0010
0000
1000
0100
1000
0000
,
0001
0000
0010
0000
0100
1000
0002
0000
0000
0000
0103
0000
0010
0000
2000
0000
,
0000
0000
3001
0000
0010
0100
0010
0000
0001
0000
1000
0000
0010
0100
0010
0000
,
1000
0000
0001
0000
0100
0001
0100
0000
0010
0000
1000
0000
0001
0000
0200
0000
,
0000
0000
0310
0000
1000
0001
1000
0000
0010
0000
0100
0000
0001
0010
0001
0000
,
1000
0000
0100
0000
0010
0001
2000
0000
0000
0000
3010
0000
0100
0000
0002
0000
,
0000
1003
0100
1000
0010
0100
0001
0010
,
0100
1000
0001
0000
1001
0000
1010
0002
,
0000
0103
0010
0100
0001
0010
0100
0010
,
0001
1000
0010
0000
1010
0000
1001
2000
,
0000
3001
0010
0001
0100
0010
1000
0100
,
0010
0001
1000
0000
1001
0000
0101
2000
,
0000
3010
0100
0010
1000
0100
0010
0100
,
1000
0001
0100
0000
0101
0000
1001
0002
,
0000
0103
1000
0100
0010
0100
0001
0100
,
0010
0100
1000
0100
0010
0100
0001
0100
,
0010
1000
0100
0010
0001
1000
0010
0100
,
0001
0000
1000
0000
0010
0100
0020
0000
0000
0000
1030
0000
0001
0000
0200
0000
,
0000
0310
0001
0010
0100
0010
1000
0010
,
0100
0010
0001
0010
0100
0010
1000
0010
,
0100
0001
0010
0100
1000
0001
0100
0010
,
1000
0100
1000
0100
0010
0001
0010
0001
0100
0000
0010
0000
1000
0000
0002
0000
,
0000
0000
1003
0000
0010
0100
0010
0000
1000
0100
1000
0000
0001
0100
0001
0000
,
1000
0001
1000
0000
0010
0000
1000
0000
0100
0000
0010
0000
0001
0000
2000
0000
,
0000
0000
3001
0000
0100
0010
0100
0000
0001
0010
0001
0000
1000
0010
1000
0000
,
0001
1000
0001
0000
0100
0000
0001
0000
0010
0000
0100
0000
1000
0000
0002
0000
,
0000
0000
1003
0000
0010
0100
0010
0000
1000
0001
1000
0000
0001
0010
0001
0000
,
1000
0100
1000
0000
0001
0000
0010
0000
0100
0000
1000
0000
0010
0000
0100
0000
,
0001
0010
0100
1000
0001
0100
0010
1000
0100
0010
0001
1000
0010
0100
0001
1000
,
0020
0000
0000
0030
,
1000
0000
0001
0000
0100
0100
1000
0000
0001
0000
0100
0100
1000
0000
0001
0000
,
0100
0100
1000
0000
0001
0000
0100
0100
1000
0000
0001
0000
0100
0000
0010
0000
,
1000
0000
0001
0000
0010
0010
1000
0000
0001
0000
0010
0010
1000
0000
0001
0000
,
0020
1000
0100
0031
,
0001
0000
1000
0000
0010
0010
0001
0000
1000
0000
0010
0010
0001
0000
1000
0000
,
0010
0010
0001
0000
1000
0000
0010
0010
0001
0000
1000
0000
0010
0000
0100
0000
,
0001
0000
1000
0000
0100
0100
0001
0000
1000
0000
0100
0100
0001
0000
1000
0000
,
0100
0010
0100
0010
0001
0010
0001
1000
0001
1000
0010
1000
,
0010
0000
0100
0000
0010
0000
0100
0000
0001
0000
0100
0000
0001
0000
1000
0000
0001
0000
1000
0000
0000
0020
0000
0000
,
0000
0000
0130
0001
0100
0000
0010
1000
0010
0000
1000
0000
0001
0000
0020
0000
,
0000
0000
0130
1000
0100
0000
0010
0001
0010
0000
0001
0000
1000
0000
0010
0000
,
0200
0000
0000
0000
0000
0000
0301
0000
0010
0000
0001
0000
1000
0000
0000
0010
0000
0000
0100
0000
0010
0000
1000
0000
,
0001
0000
0000
0100
0000
0000
0010
0000
1000
0000
0001
0000
0200
0000
0000
0000
0000
0000
0310
0000
0000
2001
0000
0000
,
0000
0000
3100
0010
0001
0010
0100
0000
1000
0100
1000
0000
0001
0100
0001
0000
,
1000
0010
0100
0001
1000
0100
0010
0001
0100
0010
1000
0001
0010
0100
1000
0001
,
0100
0010
1000
0100
0010
0001
0100
0010
1000
0100
0010
0001
,
1000
0000
0100
0000
1000
0000
0001
0000
0100
0000
0001
0000
2000
0000
0000
0000
0000
0000
0010
0000
0000
0002
0000
0000
,
3000
0000
0000
0000
0103
0010
0100
0000
0001
0100
0001
0000
1000
0100
1000
0000
,
0001
1000
0001
0000
1000
0001
1000
0000
0020
0000
0000
0000
0130
0000
0001
0000
,
1000
0100
0010
0001
1000
0010
0100
0001
,
0010
0100
1000
0001
0100
0000
0010
1000
,
0001
0010
0100
1000
0001
0010
0100
1000
0001
0010
0100
1000
0001
0010
0100
1000
,
0001
0100
0010
1000
0001
0100
0010
1000
0001
0100
0010
1000
0001
0100
0010
1000
,
0100
0010
0001
1000
0010
0100
0010
1000
0001
0010
0100
1000
0010
0100
0001
1000
,
0200
0000
0000
0000
0310
0000
0001
0100
0020
0000
0000
0000
0130
0000
1002
0000
,
0000
0000
1003
0010
1000
0000
0010
0100
0010
0000
0100
0001
0100
0000
0001
1000
,
0001
0000
0010
0100
0010
0000
0100
1000
0100
0000
1000
0000
0010
0000
2001
0000
,
0000
0000
3001
0100
0001
0000
0100
0010
0100
0000
0010
1000
0010
0000
1000
0001
,
1000
0000
0100
0010
0100
0000
0010
0001
0010
0001
0100
0000
0010
0000
1002
0000
,
0000
0000
1003
0010
1000
0000
0010
0100
0010
0000
0100
0001
0100
0000
0001
1000
,
0001
0000
0010
0100
0010
0000
0100
1000
0100
0000
1000
0000
0010
0000
0100
0000
,
0001
1000
0100
1000
0010
0100
0001
0010
0100
0010
0001
1000
0010
0100
0001
0010
,
0100
1000
0010
0100
0010
1000
0001
0100
0010
0000
1000
0000
0100
0000
1002
0000
,
0000
0000
0100
0000
0010
0000
0100
0100
,
0000
0000
0010
0000
0100
0000
0010
2003
,
0000
0000
0100
0000
0010
0000
0100
0100
,
0000
0000
0010
0000
0100
3002
0000
0203
,
0000
0000
0010
0000
0001
0000
0010
0320
,
0000
0000
1000
0000
0001
0000
0100
0230
,
0000
0000
0001
0000
0010
0000
0301
1000
,
0100
0000
0000
0010
0001
0000
0100
0000
0001
0000
1001
0000
0000
0000
0000
0000
,
0001
0000
1000
0000
0010
0010
0001
0000
1000
0000
0010
0010
0001
0000
1000
0000
,
0010
0010
0001
0000
1000
0000
0010
0010
0001
0000
1000
0000
0010
0000
0100
0000
,
0001
0000
1000
0000
0100
0100
0001
0000
1000
0000
0100
0100
0001
0000
1000
0000
,
0200
0001
0010
1300
,
1000
0000
0001
0000
0100
0100
1000
0000
0001
0000
0100
0100
1000
0000
0001
0000
,
0100
0100
1000
0000
0001
0000
0100
0100
1000
0000
0001
0000
0100
0000
0010
0000
,
1000
0000
0001
0000
0010
0010
1000
0000
0001
0000
0010
0010
1000
0000
0001
0000
,
0020
1000
0100
0031
,
1000
0000
0001
0000
1000
0100
0100
0001
1000
0000
0001
0100
0100
1000
0001
0000
,
1000
0100
0100
0001
1000
0000
0001
0100
0100
1000
0001
0000
0100
0000
0000
0000
,
0001
0000
1000
0000
0001
0010
0010
1000
0001
0000
1000
0010
0010
0001
1000
0000
,
0002
0010
0100
1003
,
0001
0000
1000
0000
0001
0010
0010
1000
0001
0000
1000
0010
0010
0001
1000
0000
,
0001
0010
0010
1000
0001
0000
1000
0010
0010
0001
1000
0000
0010
0000
0000
0000
,
0110
0000
1001
0000
0000
0101
0000
0000
,
1000
0100
1100
0000
0000
0101
0000
0000
,
0001
0010
0100
1000
1001
0000
0000
0000
0000
0000
0110
0000
0000
0000
0000
0000
,
0202
0000
0000
0000
,
0000
0000
0003
0000
,
0000
0300
0000
0000
0000
0000
0000
0000
;

//---------------dance-single - ----------------
#NOTES:
     dance-single:
     :
     Medium:
     7:
     0.465480,0.658687,0.325062,0.131573,0.000000,362.000000,42.000000,17.000000,0.000000,0.000000,0.000000,0.465480,0.658687,0.325062,0.131573,0.000000,362.000000,42.000000,17.000000,0.000000,0.000000,0.000000:
0000
0000
0000
0000
,
0000
0000
0000
0000
,
0000
0000
0000
0000
,
0000
0000
0000
0000
0000
1001
0000
0110
,
0000
0000
0000
0000
0000
0000
0000
0101
,
0000
0000
0000
0000
0000
0000
0000
1100
,
0000
0000
0000
0000
0000
0000
0000
1001
,
0000
0000
0000
0000
,
0010
1000
0001
0100
,
0010
0000
1000
0000
0001
1000
0001
0000
,
0010
0001
0100
0010
,
1000
0000
0001
0000
0010
0100
0010
0000
,
0001
1000
0010
0100
,
0001
0000
1000
0000
0100
0010
0100
0000
,
1000
0001
0100
0010
,
1000
0000
0001
0000
0100
0010
0100
0000
,
0000
0000
0001
0000
0100
0010
0000
1000
,
0000
0000
1001
1001
,
0000
0000
1000
0000
0100
0010
0000
0001
,
0000
0000
1001
1001
,
0000
0000
0010
0000
1000
0001
0000
0100
,
0000
0000
1001
1001
,
0000
0000
0010
0000
0001
1000
0000
0100
,
0000
0000
1001
1001
,
0100
0000
0010
0000
1000
0100
1000
0000
,
0001
0100
0001
0000
1000
0000
0001
0000
,
0100
0000
0010
0000
1000
0010
1000
0000
,
0001
0010
0001
0000
1000
0000
0000
0000
,
0010
0000
1000
0000
0001
0100
0001
0000
,
1000
0100
1000
0000
0001
0000
0010
0000
,
0100
0000
1000
0000
0010
1000
0010
0000
,
0100
0000
0001
0000
1000
0000
0100
0200
,
0000
0010
0010
0010
,
0310
0000
0001
0000
1000
0000
0010
0020
,
0000
0100
0100
0100
,
0130
0000
0001
0000
1000
0000
0001
0002
,
0000
0100
0100
0100
,
0103
0000
0100
0000
0010
0000
1000
2000
,
0000
0100
0100
3100
,
2002
0000
0000
3003
,
0010
0000
1000
0000
0100
0010
0000
0010
,
0001
0000
0001
1000
0000
1000
0010
0000
,
0100
0000
0001
0000
1000
0010
0000
0010
,
0200
0000
0010
0000
,
0310
0000
0100
0000
0001
1000
0000
1000
,
0100
0000
0100
0010
0000
0010
0001
0000
,
1000
0000
0010
0000
0100
0001
0000
0002
,
2000
0000
0000
0000
,
0000
0000
3003
0000
,
0010
1000
0100
0100
,
0010
0001
0100
0100
,
0010
1000
0010
0000
1000
0100
1000
0000
,
0001
1000
0001
0000
0100
0000
0000
0000
,
0010
0000
0010
0000
0100
0001
0100
0000
,
0010
0000
1000
0000
0001
1000
0001
0000
,
0010
0001
1000
0100
,
0010
0001
1000
0000
,
0001
0101
1000
1100
,
0001
0101
1000
1100
,
0001
0000
1000
0000
0010
0100
0001
0000
,
1000
0100
0010
0000
0001
0000
0000
0000
,
1000
0100
1000
0100
1000
0100
1000
0100
,
0010
0001
0010
0001
0010
0001
0010
0001
,
0100
0010
0100
0010
0100
0010
0100
0010
,
1000
0001
1000
0001
1000
0000
0000
0000
,
0010
1010
0001
0011
,
1000
1010
0001
0101
,
0200
0000
0020
0000
,
0000
0000
0330
0000
,
0001
0101
1000
1100
,
0001
0011
1000
0010
,
0100
0001
0100
0010
0100
0000
0001
0000
,
1000
0100
1000
0001
1000
0000
0010
0100
,
0000
0000
0000
0000
,
0000
0000
0000
0000
0000
0000
0000
1001
,
0000
0000
0000
0000
,
0000
0000
0000
0000
0000
1010
0000
0101
,
0000
0000
0000
0000
0000
0000
0000
0011
,
0000
0000
0000
0000
0000
0000
0000
1100
,
0000
0000
0000
0000
0000
0000
0000
0010
,
0010
0000
1000
0000
0001
0100
0000
0000
,
0110
0000
0001
0000
0010
0100
0000
0100
,
1000
0000
1000
0001
0000
0001
0100
0000
,
0010
0000
1000
0000
0001
0100
0000
0100
,
0020
0000
0100
0000
,
0130
0000
0010
0000
1000
0001
0000
0001
,
0010
0000
0010
0100
0000
0100
1000
0000
,
0001
0000
0100
0000
0010
1000
0000
1000
,
0001
0000
1000
0000
0010
0100
0010
0000
,
0110
0000
0001
0100
0000
0010
1000
0000
,
0100
0010
0000
0001
1000
0000
2002
0000
,
3003
0000
0010
0000
1000
0100
0000
0010
,
0002
0100
1000
0103
,
0010
0000
1000
0100
0000
0010
0001
0000
,
1000
0010
0000
0100
0001
0000
1000
0000
,
0001
0000
0110
0000
0000
1001
0000
0000
,
0110
0000
0011
0000
0000
1100
0000
0000
,
0101
0000
1010
0000
0000
1001
0000
0000
,
0220
0000
0000
0000
,
0000
0000
0030
0000
,
0000
0300
0000
0000
0000
0000
0000
0000
;

//---------------dance-single - ----------------
#NOTES:
     dance-single:
     :
     Easy:
     5:
     0.275308,0.464955,0.139312,0.085135,0.000000,220.000000,18.000000,11.000000,0.000000,0.000000,0.000000,0.275308,0.464955,0.139312,0.085135,0.000000,220.000000,18.000000,11.000000,0.000000,0.000000,0.000000:
0000
0000
0000
0000
,
0000
0000
0000
0000
,
0000
0000
0000
0000
,
0000
0000
0000
0000
0000
0000
0000
1000
,
0000
0000
0000
0000
0000
0000
0000
0001
,
0000
0000
0000
0000
0000
0000
0000
0100
,
0000
0000
0000
0000
0000
0000
0000
0010
,
0000
0000
0000
0000
,
1000
0000
0001
0000
,
0100
0000
0010
1000
,
0001
0000
0010
0000
,
0001
0000
1000
0100
,
0010
0000
0001
0000
,
1000
0000
0010
0100
,
0001
0000
1000
0000
,
0001
0000
0010
0100
,
1000
0000
0010
0100
,
0001
0000
1000
1000
,
1000
0000
0001
0010
,
0100
0000
0010
0010
,
0010
0000
0001
1000
,
0010
0000
0100
0100
,
0100
0000
0010
1000
,
0001
0000
0100
0100
,
0100
0000
0001
0000
,
1000
0100
0010
0000
,
0001
1000
0001
1000
,
0001
0000
0100
0000
,
0010
0000
1000
0000
,
0100
0010
0001
0000
,
1000
0001
1000
0001
,
1000
0000
0000
0000
,
0000
0010
0100
0010
,
0100
0001
0001
0001
,
0001
0010
0100
0010
,
0100
1000
1000
1000
,
1000
0010
0100
0001
,
0010
0100
1000
0010
,
0100
0001
0010
0100
,
2002
0000
0000
3003
,
0000
0000
0010
0000
0000
1000
0000
0000
,
0001
0000
0000
0100
0000
0000
1001
0000
,
0000
0000
0010
0000
0000
1000
0000
0000
,
0200
0000
0000
0300
,
0000
0000
0010
0000
0000
0001
0000
0000
,
1000
0000
0000
0010
0000
0000
1001
0000
,
0000
0000
0100
0000
0000
0001
0000
0000
,
2002
0000
0000
0000
,
0000
0000
0000
3003
,
0000
0010
0000
1000
,
0000
0001
0000
0100
,
0000
0001
0000
1000
,
0000
0100
0000
0010
,
0000
0001
0000
1000
,
0000
0010
0000
0100
,
0000
0010
0000
1000
,
0000
0001
0000
1000
,
0100
0100
0010
0010
,
0001
1000
0010
0000
,
0100
0000
0001
0000
,
1000
0000
0100
0000
,
0010
0001
0010
0001
,
1000
0100
1000
0100
,
0010
0001
1000
0010
,
0100
0001
1000
0000
,
0010
0000
0010
0000
,
1000
0000
0100
0010
,
0001
0000
0001
0000
,
1000
0000
1000
0001
,
0100
0000
0100
0000
,
0010
0000
0010
0000
,
1000
1000
0100
0000
,
0010
0010
0001
0000
,
1001
0000
0000
0000
,
0000
0000
0000
0000
0000
0000
0000
0010
,
0000
0000
0000
0000
,
0000
0000
0000
0000
0000
0000
0000
1000
,
0000
0000
0000
0000
0000
0000
0000
0001
,
0000
0000
0000
0000
0000
0000
0000
0100
,
0000
0000
0000
0000
,
0100
0010
1000
0000
,
0000
0000
0001
0000
0000
1000
0000
0000
,
0100
0000
0000
0010
0000
0000
1001
0000
,
0000
0000
0010
0000
0000
1000
0000
0000
,
0200
0000
0000
0300
,
0000
0000
0010
0000
0000
0001
0000
0000
,
1000
0000
0000
0010
0000
0000
1001
0000
,
0000
0000
0100
0000
0000
0001
0000
0000
,
0020
0000
0000
0030
,
0000
0000
0110
0000
0000
0010
0000
0000
,
0110
0000
0000
0100
0000
0000
0110
0000
,
0000
0000
1001
0000
0000
0001
0000
0000
,
2002
0000
0000
3003
,
0000
0000
0110
0000
0000
0100
0000
0000
,
0110
0000
0000
0100
0000
0000
0010
0000
,
0001
0000
1000
0000
0000
1001
0000
0000
,
0000
0000
0010
0000
0000
0110
0000
0000
,
0000
0000
0001
0000
0000
0101
0000
0000
,
2200
0000
0000
0000
,
0000
0000
0300
0000
,
0000
3000
0000
0000
0000
0000
0000
0000
;

//---------------dance-single - ----------------
#NOTES:
     dance-single:
     :
     Beginner:
     3:
     0.190173,0.341315,0.100615,0.000000,0.000000,159.000000,13.000000,0.000000,0.000000,0.000000,0.000000,0.190173,0.341315,0.100615,0.000000,0.000000,159.000000,13.000000,0.000000,0.000000,0.000000,0.000000:
0000
0000
0000
0000
,
0000
0000
0000
0000
,
0000
0000
0000
0000
,
0000
0000
0000
0000
,
0000
0000
0000
0000
,
0000
0000
0000
0000
,
0000
0000
0000
0000
,
0000
0000
0000
0000
,
1000
0000
0000
0000
,
0001
0000
0000
0000
,
0010
0000
0000
0000
,
0010
0000
0000
0000
,
0001
0000
0000
0000
,
1000
0000
0000
0000
,
0010
0000
0000
0000
,
0010
0000
0000
0000
,
0000
0100
0100
0100
,
0100
0000
0000
0000
,
0000
0001
0001
0001
,
0001
0000
0000
0000
,
0000
1000
1000
1000
,
1000
0000
0000
0000
,
0000
0010
0010
0010
,
0010
0000
0000
0000
,
1000
0000
1000
0000
,
0001
0000
0001
0000
,
0100
0000
0100
0000
,
0010
0000
0000
0000
,
0100
0000
0100
0000
,
0001
0000
0001
0000
,
0010
0000
0010
0000
,
0100
0000
0000
0000
,
0000
0010
0010
0010
,
0010
0000
0000
0000
,
0000
0001
0001
0001
,
0001
0000
0000
0000
,
0000
1000
1000
1000
,
1000
1000
1000
0000
,
0010
0010
0010
0010
,
0010
0000
0000
0000
,
0000
1001
0000
0010
,
0000
0100
0000
0001
,
0000
1001
0000
0100
,
0000
1000
0000
0010
,
0000
1001
0000
0100
,
0000
0001
0000
0010
,
0000
1001
0000
0100
,
0100
0000
0000
0000
,
0000
0000
0000
0000
,
0000
0010
0000
0010
,
0000
0001
0000
0001
,
0000
1000
0000
1000
,
0000
0010
0000
0010
,
0000
0100
0000
0100
,
0000
0001
0000
0001
,
0000
1000
0000
1000
,
0000
0100
0000
0000
,
0010
0000
0001
0000
,
1000
0000
0010
0000
,
0100
0000
0100
0000
,
0001
0000
0001
0000
,
1000
1000
1000
1000
,
0001
0001
0001
0001
,
0100
0100
0100
0100
,
0100
0100
0100
0000
,
0010
0000
0000
0000
,
1000
0000
0000
0000
,
0001
0000
0001
0000
,
0000
0000
0000
0000
,
0001
0000
0000
0000
,
1000
0000
0000
0000
,
0100
0000
0100
0000
,
0010
0000
0010
0000
,
1001
0000
0000
0000
,
0000
0000
0000
0000
,
0000
0000
0000
0000
,
0000
0000
0000
0000
,
0000
0000
0000
0000
,
0000
0000
0000
0000
,
0000
0000
0000
0000
,
0010
0010
0010
0000
,
0000
1001
0000
0100
,
0000
0010
0000
0001
,
0000
1001
0000
0100
,
0000
0010
0000
1000
,
0000
1001
0000
0100
,
0000
0010
0000
0001
,
0000
1001
0000
0100
,
0000
0010
0000
1000
,
0000
0110
0000
0001
,
0000
1000
0000
0010
,
0000
0110
0000
1000
,
0000
0001
0000
0010
,
0000
0110
0000
0001
,
0000
1000
0000
0010
,
0010
0010
0000
0000
,
0100
0100
0000
0000
,
0001
0001
0000
0000
,
1001
0000
0000
0000
;

//---------------dance-double - ----------------
#NOTES:
     dance-double:
     :
     Challenge:
     9:
     0.727520,0.851354,0.356021,0.247667,0.034828,580.000000,46.000000,32.000000,0.000000,0.000000,0.000000,0.727520,0.851354,0.356021,0.247667,0.034828,580.000000,46.000000,32.000000,0.000000,0.000000,0.000000:
// measure 0
00000000
00000000
00000000
00000000
,  // measure 1
00000000
00000000
00000000
00000000
,  // measure 2
00000000
00000000
00000000
00000000
,  // measure 3
00000000
00000000
00000000
00000000
00000000
10100000
00000000
01010000
,  // measure 4
00000000
00000000
00000000
00000000
00000000
00000000
00000000
00011000
,  // measure 5
00000000
00000000
00000000
00000000
00000000
00000000
00000000
00001100
,  // measure 6
00000000
00001000
00000100
00000010
00000001
00000100
00000010
00001000
,  // measure 7
00000001
00000010
00000100
00001000
00000001
00000100
00000010
00002000
,  // measure 8
00000000
00003001
00000100
00000000
00000010
00001000
00000100
00000000
,  // measure 9
00000010
00000001
00001000
00000000
00000010
00000100
00000001
00000100
,  // measure 10
00000001
00000100
00000010
00000000
00001000
00000100
00000010
00000000
,  // measure 11
00000001
00001000
00000100
00010000
00001000
00100000
00010000
10000000
,  // measure 12
00100000
00010000
00100000
00000000
10000000
01000000
10000000
00000000
,  // measure 13
00010000
01000000
00100000
00000000
10000000
00010000
01000000
00010000
,  // measure 14
01000000
00010000
10000000
00000000
00100000
01000000
00010000
00000000
,  // measure 15
10000000
01000000
00100000
00010000
01000000
00100000
00010000
00001000
,  // measure 16
00000000
00010000
00100000
10000000
01000000
00100000
00010000
10000000
,  // measure 17
00100000
01000000
00010000
00000000
01010000
00000000
11000000
02000000
,  // measure 18
00000000
13000000
00010000
00100000
01000000
10000000
00100000
01000000
,  // measure 19
00010000
10000000
00100000
00000000
10100000
00000000
00110000
00020000
,  // measure 20
00000000
01030000
00100000
10000000
01000000
00010000
00001000
00000100
,  // measure 21
00000001
00001000
00000100
00000000
00001100
00000000
00000011
00000002
,  // measure 22
00000000
00001003
00000100
00000010
00000001
00000100
00000010
00001000
,  // measure 23
00000001
00010000
00000100
00000000
00001000
00000100
00010000
00011000
,  // measure 24
00000000
00001000
00010000
00001000
01000000
00001000
00100000
00001000
,  // measure 25
00010000
00001000
01000000
00001000
00010000
00001000
00100000
00001000
,  // measure 26
00010000
00100000
10000000
01000000
00100000
00010000
10000000
00100000
,  // measure 27
01000000
00000000
00010000
00000000
10000000
00100000
10000000
00000000
00010000
00000000
00100000
00000000
00001000
00000000
00011000
00000000
,  // measure 28
00000000
00010000
00001000
00010000
00000010
00010000
00000100
00010000
,  // measure 29
00001000
00010000
00000010
00010000
00001000
00010000
00000100
00010000
,  // measure 30
00001000
00000100
00000001
00000010
00000100
00001000
00000001
00000100
,  // measure 31
00000010
00001000
00000010
00000000
00001000
00000000
00000100
00000000
00000010
00000001
00000010
00000000
00000001
00000000
00001000
00000000
,  // measure 32
00000000
00000000
00000001
00000000
00000100
00000000
00000001
00000000
00000100
00000000
00000001
00000000
00000100
00000000
00000001
00000100
,  // measure 33
00000001
00000010
00000100
00001000
00000001
00000100
00000010
00001000
,  // measure 34
00000000
00000100
00010000
00000100
00010000
00000100
00010000
00000100
,  // measure 35
00010000
00000000
00000100
00010000
00000100
00000000
00010000
00000000
00001000
00000000
00010000
00000000
00100000
00000000
10000000
00000000
,  // measure 36
00000000
00000000
00010000
00000000
10000000
00000000
00010000
00000000
10000000
00000000
00010000
00000000
10000000
00000000
00010000
10000000
,  // measure 37
00010000
01000000
00100000
10000000
01000000
00100000
00010000
10000000
,  // measure 38
00100000
01000000
00100000
00000000
10000000
00000000
00010000
00000000
00100000
01000000
00100000
00000000
00010000
00000000
10000000
00000000
,  // measure 39
20020000
00000000
00000000
00000000
00000000
00000000
00000000
00000000
00000000
00000000
00000000
30030000
00000000
00000000
00000000
00000000
,  // measure 40
01000000
00000000
10010000
00000000
00100000
10100000
00000000
00010000
,  // measure 41
00110000
00000000
10000000
11000000
00000000
00010000
01010000
00000000
,  // measure 42
10010000
00000000
10000000
00100000
00010000
00001000
00000010
00000001
,  // measure 43
00000200
00001000
00000010
00000301
,  // measure 44
00000010
00000000
00001001
00000000
00000100
00000101
00000000
00001000
,  // measure 45
00001100
00000000
00000001
00000011
00000000
00001000
00001010
00000000
,  // measure 46
00001001
00000000
00000001
00000100
00001000
00010000
01000000
10000000
,  // measure 47
00200000
02300000
03020000
00230000
,  // measure 48
00302000
00000000
00023000
00000000
00030020
00000000
00001030
00000002
,  // measure 49
00000000
00000103
00001000
00000100
00000010
00000100
00000001
00002000
,  // measure 50
00000000
00003100
00000010
00000001
00001000
00000100
00001000
00000020
,  // measure 51
00000000
00000000
00010030
00001000
00020000
00000000
00130000
10000000
,  // measure 52
01000000
00100000
00010000
10000000
00200000
00000000
00000000
00000000
,  // measure 53
10300000
01000000
10000000
01000000
00100000
00010000
00100000
00010000
,  // measure 54
00100000
00001000
00100000
00001000
00100000
00001000
00010000
00001000
,  // measure 55
00010000
00001000
00000010
00000001
00000100
00000010
00001000
00000001
,  // measure 56
00000010
00000100
00001000
00000001
00000200
00000000
00000000
00000000
,  // measure 57
00000310
00001000
00000010
00000000
00001000
00000001
00001000
00000000
,  // measure 58
00000001
00000100
00001000
00000000
00020000
00000000
00000000
00000000
,  // measure 59
00130000
10000000
00100000
10000000
01000000
10000000
01000000
00100000
,  // measure 60
00010000
10000000
00100000
01000000
00010000
00000000
10000000
00000000
,  // measure 61
00010000
00100000
00001000
00100000
00010000
00100000
00001000
00100000
,  // measure 62
00000100
00010000
00001000
00010000
00000100
00010000
00001000
00010000
,  // measure 63
00000100
00001000
00000010
00000100
00000001
00001000
00000100
00000010
,  // measure 64
00000002
00000000
00001003
00000100
00002000
00000000
00003001
00000102
,  // measure 65
00000000
00000103
00000010
00000100
00001000
00000100
00000010
00000100
,  // measure 66
00000001
00000100
00000010
00001000
00000100
00000010
00000001
00002000
,  // measure 67
00000000
00000000
00003010
00000000
00001000
00000100
00000010
00000000
,  // measure 68
00000001
00001000
00000010
00000000
00000100
00000001
00001000
00000100
,  // measure 69
00000100
00010000
00001000
00010000
00000100
00010000
00001000
00010000
,  // measure 70
00000100
00010000
00001000
00010000
00100000
10000000
01000000
00200000
,  // measure 71
00000000
00310000
10000000
00100000
01000000
00010000
00100000
01000000
,  // measure 72
10000000
00010000
10000000
01000000
00100000
00010000
01000000
00001000
,  // measure 73
00000000
00000000
00000000
00000000
,  // measure 74
00000000
00000000
00000000
00000000
00000000
00000000
00000000
00011000
,  // measure 75
00000000
00000000
00000000
00000000
,  // measure 76
00000000
00000000
00000000
00000000
00000000
00001100
00000000
01010000
,  // measure 77
00000000
00000000
00000000
00000000
00000000
00000000
00000000
00001010
,  // measure 78
00000000
00000000
00000000
00000000
00000000
00000000
00000000
00110000
,  // measure 79
00000000
00000000
00000000
00000000
00000000
00000000
00000000
00010000
,  // measure 80
00001000
00000000
00000000
00001000
00010000
00000000
00010000
00000000
00001000
00000000
00101000
00000000
00000000
00000000
00010000
00000000
,  // measure 81
00010100
00000000
00001000
00000010
00000100
00000001
00000010
00000100
,  // measure 82
00001000
00000010
00000100
00000001
00001000
00000100
00000020
00000000
,  // measure 83
00000031
00000100
00001000
00000100
00000001
00000010
00000100
00001000
,  // measure 84
00000020
00000100
00001000
00010030
,  // measure 85
00010100
00000000
00010000
00000100
00001000
00000100
00010000
00001000
,  // measure 86
00100000
00010000
01000000
00100000
10000000
01000000
00100000
00010000
,  // measure 87
10000000
01000000
10000000
00100000
01000000
00010000
10000000
00010000
,  // measure 88
01010000
00000000
11000000
00000000
00010000
10000000
00010000
00000000
,  // measure 89
10100000
00000000
00010000
01000000
00100000
10000000
01000000
00100000
,  // measure 90
00010000
01000000
00100000
10000000
00010000
00100000
02000000
00000000
,  // measure 91
13000000
00100000
00010000
00100000
10000000
01000000
00100000
00010000
,  // measure 92
02000000
00100000
00010000
03001000
,  // measure 93
00101000
00000000
00001000
00100000
00010000
00100000
00001000
00010000
,  // measure 94
00000100
00001000
00000010
00000100
00000001
00000010
00000100
00001000
,  // measure 95
00000001
00000010
00000011
00000000
00000000
00001010
00000000
00000000
,  // measure 96
00000001
00001000
00001001
00000000
00000000
00001100
00000000
00000000
,  // measure 97
00010100
00000000
00011000
00000000
00000000
00110000
00000000
00000000
,  // measure 98
22000000
00000000
00000000
00000000
,  // measure 99
00000000
00000000
03000000
00000000
,  // measure 100
30000000
00000000
00000000
00000000
;
