#TITLE:Ice Ice Mickey;
#SUBTITLE:;
#ARTIST:Disney Grooves;
#TITLETRANSLIT:;
#SUBTITLETRANSLIT:;
#ARTISTTRANSLIT:;
#CREDIT:;
#BANNER:;
#BACKGROUND:;
#LYRICSPATH:;
#CDTITLE:./CDTITLES/DanceDanceRevolution Disney Grooves.png;
#MUSIC:Ice Ice Mickey.mp3;
#OFFSET:-0.058;
#SAMPLESTART:0.020;
#SAMPLELENGTH:15.000;
#SELECTABLE:YES;
#BPMS:0.000=102.000;
#STOPS:;
#BGCHANGES:;

//---------------dance-single - ----------------
#NOTES:
     dance-single:
     :
     Beginner:
     1:
     0.072,0.079,0.040,0.000,0.000:
0000
0000
0000
0000
,
0000
0000
0000
0000
,
0000
0000
0000
0000
,
0000
0000
0000
0000
,
0001
0001
0000
0000
,
0100
0000
0000
0000
,
1000
1000
0000
0000
,
0000
0100
0000
0000
,
1000
0000
0000
0000
,
0100
0000
0000
0000
,
0001
0000
0000
0000
,
1001
0000
0000
0000
,
1000
0000
0000
0000
,
0010
0000
0000
0000
,
0001
0000
0000
0000
,
1001
0000
0000
0000
,
0001
0001
0000
0000
,
0100
0000
0000
0000
,
1000
1000
0000
0000
,
0000
0010
0000
0000
,
0001
0001
0000
0000
,
0010
0000
0000
0000
,
1000
1000
0000
0000
,
0000
0010
0000
0000
,
1000
0000
0000
0000
,
0100
0000
0000
0000
,
1000
0000
0000
0000
,
1001
0000
0000
0000
,
0001
0000
0000
0000
,
0100
0000
0000
0000
,
0001
0000
0000
0000
,
1001
0000
0000
0000
,
0001
0001
0000
0000
,
0010
0000
0000
0000
,
1000
1000
0000
0000
,
0000
0100
0000
0000
,
1000
1000
0000
0000
,
0010
0000
0000
0000
,
0001
0001
0000
0000
,
0000
0100
0000
0000
;

//---------------dance-single - ----------------
#NOTES:
     dance-single:
     :
     Easy:
     2:
     0.111,0.118,0.141,0.040,0.000:
0000
0000
0000
0000
,
0000
0000
0000
0000
,
0000
0000
0000
0000
,
0000
0000
0000
0000
,
1000
1001
0000
0000
,
0100
0000
0100
0000
,
0001
1001
0000
0000
,
0000
0100
0000
0000
,
0001
0000
0100
0000
,
0200
0000
0000
0300
,
1000
0000
0100
0000
,
1001
0000
0000
0000
,
1000
0000
0100
0000
,
0200
0000
0000
0300
,
0001
0000
0100
0000
,
1001
0000
0000
0000
,
1000
1001
0000
0000
,
0010
0000
1000
0000
,
0001
1001
0000
0000
,
0000
0100
0000
0000
,
1000
1001
0000
0000
,
0100
0000
0001
0000
,
0001
1001
0000
0000
,
0000
0100
0000
0000
,
0001
0000
0100
0000
,
0200
0000
0000
0300
,
0001
0000
0100
0000
,
1001
0000
0000
0000
,
1000
0000
0100
0000
,
0200
0000
0000
0300
,
1000
0000
0100
0000
,
1001
0000
0000
0000
,
1000
1001
0000
0000
,
0010
0000
1000
0000
,
0001
1001
0000
0000
,
0000
0100
0000
0000
,
1000
1001
0000
0000
,
0100
0000
0001
0000
,
0001
1001
0000
0000
,
0000
0100
0000
0000
;

//---------------dance-single - ----------------
#NOTES:
     dance-single:
     :
     Medium:
     4:
     0.168,0.197,0.242,0.040,0.000:
0000
0000
0000
0000
,
0000
0000
0000
0000
,
0000
0000
0000
0000
,
0000
0000
0000
0000
,
1001
1001
0000
0000
,
0100
0010
0001
1000
,
1001
1001
0000
0000
,
0000
0100
0000
0000
,
0001
1000
0100
0000
,
2000
0000
0001
3001
,
1000
0000
0100
0100
,
0000
0010
0000
1001
,
1000
0001
0010
0000
,
0002
0000
1000
1003
,
0001
0000
0010
0010
,
0000
0100
0000
1001
,
1100
1001
0000
0000
,
0100
0010
1000
0001
,
0011
0011
0000
0000
,
0000
0100
0000
0000
,
1010
1001
0000
0000
,
0010
0100
1000
0001
,
0101
0101
0000
0000
,
0000
0010
0000
0000
,
0001
1000
0100
0000
,
2000
0000
0001
3001
,
0001
0000
0010
0010
,
0000
0100
0000
1001
,
1000
0001
0010
0000
,
0002
0000
1000
1003
,
1000
0000
0100
0100
,
0000
0010
0000
1001
,
1100
1001
0000
0000
,
0100
0010
1000
0001
,
0011
0011
0000
0000
,
0000
0100
0000
0000
,
0011
1001
0000
0000
,
0010
0100
1000
0001
,
0101
0101
0000
0000
,
0000
0010
0000
0000
;

//---------------dance-single - ----------------
#NOTES:
     dance-single:
     :
     Hard:
     6:
     0.239,0.240,0.282,0.081,0.000:
0000
0000
0000
0000
,
0000
0000
0000
0000
,
0000
0000
0000
0000
,
0000
0000
0000
0000
,
0011
0011
0010
1000
,
0010
1000
0001
0100
,
1010
1010
0100
0001
,
0000
0100
0000
0100
,
1000
0010
0100
0010
,
0200
0001
1000
0310
,
1000
0100
0010
0001
,
1001
0000
0100
0101
,
0001
0100
0010
0100
,
0020
1000
0001
0130
,
0001
0010
0100
1000
,
1001
0000
0010
1010
,
1100
1010
0010
0001
,
0200
0000
1000
0301
,
0101
0011
0100
1000
,
1000
0001
1000
0001
,
0110
1001
1000
0100
,
0020
0000
1000
0031
,
0110
1001
0001
0010
,
0000
0100
0000
0100
,
0001
0010
0100
0010
,
0200
1000
0001
0310
,
0001
0010
0100
1000
,
1001
0000
0010
1010
,
1000
0100
0010
0100
,
0020
0001
1000
0130
,
1000
0100
0010
0001
,
1001
0000
0100
0101
,
1100
1010
0010
0001
,
0020
0000
1000
0031
,
0101
0011
0100
1000
,
1000
0001
1000
0001
,
0110
1001
1000
0100
,
0020
0000
1000
0031
,
0110
1001
0001
0010
,
0000
0100
0000
0100
;
