#VERSION:0.82;
#TITLE:Treasure;
#SUBTITLE:;
#ARTIST:Bruno Mars;
#TITLETRANSLIT:;
#SUBTITLETRANSLIT:;
#ARTISTTRANSLIT:;
#GENRE:Who's A Sexy Mo-Fo?!;
#ORIGIN:;
#CREDIT:;
#BANNER:Treasure.png;
#BACKGROUND:Treasure-bg.png;
#PREVIEWVID:;
#JACKET:jacket.png;
#CDIMAGE:;
#DISCIMAGE:;
#LYRICSPATH:;
#CDTITLE:;
#MUSIC:Treasure.ogg;
#OFFSET:-0.077000;
#SAMPLESTART:35.197266;
#SAMPLELENGTH:13.714000;
#SELECTABLE:YES;
#BPMS:0.000=116.000;
#STOPS:;
#DELAYS:;
#WARPS:;
#TIMESIGNATURES:0.000=4=4;
#TICKCOUNTS:0.000=4;
#COMBOS:0.000=1;
#SPEEDS:0.000=1.000=0.000=0;
#SCROLLS:0.000=1.000;
#FAKES:;
#LABELS:0.000=Song Start;
#BGCHANGES:0.000=Treasure.avi=1.000=0=0=1=====,
99999=-nosongbg-=1.000=0=0=0 // don't automatically add -songbackground-
;
#KEYSOUNDS:;
#ATTACKS:
;

//---------------dance-single - ----------------
#NOTEDATA:;
#CHARTNAME:;
#STEPSTYPE:dance-single;
#DESCRIPTION:;
#CHARTSTYLE:;
#DIFFICULTY:Challenge;
#METER:9;
#RADARVALUES:0.527845,0.538983,0.355932,0.135593,0.322034,378.000000,42.000000,16.000000,0.000000,0.000000,0.000000,0.000000,0.000000,0.527845,0.538983,0.355932,0.135593,0.322034,378.000000,42.000000,16.000000,0.000000,0.000000,0.000000,0.000000,0.000000;
#CREDIT:Ben Speirs;
#NOTES:
0000
0000
0000
0000
,
1000
0010
1000
0000
0001
0010
0001
0000
1000
0000
0100
0000
0010
0000
0001
0000
,
2000
0000
3100
0000
1000
0001
1000
0000
,
0010
0000
0100
0000
0001
0000
1000
0000
0100
0000
0010
0000
0001
1000
0001
0000
,
0200
0000
0310
0000
0100
0001
1000
0000
,
0001
0100
0001
0000
1000
0000
1000
0000
0001
0000
0100
0010
0100
0000
0001
0000
,
2000
0000
3100
0000
0010
0001
1000
0000
,
0010
0100
0001
1000
0100
0010
0001
1000
,
0020
0000
0130
0000
0001
1000
0001
0000
,
1100
0000
0000
0100
0010
0000
0000
0010
0002
0000
0000
0000
1003
0000
0000
0000
,
0001
0100
0010
1000
0001
0001
1000
1000
,
0020
0000
0230
0000
0301
1000
0001
0000
,
1100
0011
0101
1010
,
1001
0000
0000
0001
0010
0000
0000
0010
0200
0000
0000
0000
1300
0000
0000
0000
,
0010
0010
1000
0100
0010
0010
0001
1000
,
1010
0101
1100
0011
,
1000
0000
0001
0000
1000
0000
0001
0000
0100
0010
0100
0000
1001
0000
0000
0000
,
0101
0000
0100
0000
0010
1000
0010
0000
0200
0000
0000
0301
0000
0000
1000
0000
,
0001
0100
0000
0000
0010
1000
0000
0000
0001
0010
0000
0000
0100
1000
0000
0000
,
0001
0000
0100
0000
0010
1000
0010
0000
0200
0000
0000
0301
0000
0000
1000
0000
,
0001
0010
0000
0000
0010
0100
0000
0000
0100
1000
0000
0000
1000
0010
0000
0000
,
0100
0000
0001
0000
1000
0100
1000
0000
0002
0000
0000
0013
0100
0010
0100
2000
,
0000
0000
3001
0000
0001
0100
0110
0000
,
0001
0000
1000
0000
0100
0010
0100
0000
2000
0000
0000
3001
0000
0000
1000
0000
,
0101
1010
1100
0011
,
1000
0000
0001
0000
1000
0000
0100
0000
1000
0000
0001
0000
1000
0010
1000
0000
,
0001
0000
0010
0000
0001
0000
1000
0000
0001
0000
0100
0000
0001
1000
0001
0000
,
0101
0100
0010
1010
1000
0100
1100
1000
,
0001
0010
0000
0010
0100
0000
0100
1000
0000
1000
0010
0000
0101
0000
0000
0000
,
1000
0000
0100
0000
1100
0000
0100
0000
1000
0000
0000
1000
0100
0000
0000
0000
,
0001
0000
0100
0000
0101
0000
0100
0000
0001
0000
0000
0001
0100
0000
0000
0000
,
0010
0000
1000
0000
1010
0000
1000
0000
0010
0000
0000
0010
1000
0000
0000
0000
,
0100
1000
0001
0010
0100
1000
0001
0000
,
0100
0000
0010
0000
0100
0000
0010
0000
1000
0000
0000
1000
0001
0000
0000
0000
,
0010
0000
0100
0000
0010
0000
0100
0000
1000
0000
0000
1000
0001
0000
0000
0000
,
1100
0011
0101
1010
,
0001
0000
1000
0000
0001
0000
1000
0000
0010
0100
0010
0000
1001
0000
0000
0000
,
0101
0000
0100
0000
0010
1000
0010
0000
0100
0000
0000
0100
0001
0000
1000
0000
,
0100
0010
0000
0010
0001
1000
0000
1000
0010
0100
0000
0100
0001
0000
0000
0000
,
1000
0000
0010
0000
1000
0001
1000
0000
0010
0000
0000
0010
0100
0000
0001
0000
,
1000
0100
0000
0100
0010
0001
0000
0001
1000
0010
0000
0010
0100
0000
0000
0000
,
0001
0000
1000
0000
0010
0100
0010
0000
1000
0000
0000
1000
0100
0010
0100
0020
,
0000
0000
0000
0000
0031
0000
0000
0000
1000
0001
1000
0000
0001
0000
0000
0000
,
1000
0000
0001
0000
0100
0010
0100
0000
0001
0000
0000
0001
1000
0000
0010
0000
,
0100
0001
0000
0001
1000
0100
0000
0100
0010
0001
0000
0001
1000
0000
0000
0000
,
1010
0000
0010
0000
1000
0001
1000
0000
0100
0000
1000
0000
0010
0000
0000
0000
,
1001
0000
0001
0000
0100
0001
0100
0000
0001
0000
1000
0000
0010
0000
0000
0000
,
1001
0100
0010
1001
0010
0100
1001
0010
,
0100
0001
0000
1000
0100
0000
0010
0001
0000
1000
0010
0000
1001
0000
0000
0000
,
2100
0010
3001
1100
,
0102
0010
1003
0101
,
1000
0000
0000
0000
0001
0000
0000
0000
0100
0000
0000
0100
0000
0000
0010
0000
,
1000
0001
0101
1010
,
0100
0000
0000
0000
;

//---------------dance-single - ----------------
#NOTEDATA:;
#CHARTNAME:;
#STEPSTYPE:dance-single;
#DESCRIPTION:;
#CHARTSTYLE:;
#DIFFICULTY:Hard;
#METER:7;
#RADARVALUES:0.417676,0.426695,0.296610,0.364407,0.025424,267.000000,35.000000,43.000000,0.000000,0.000000,0.000000,0.000000,0.000000,0.417676,0.426695,0.296610,0.364407,0.025424,267.000000,35.000000,43.000000,0.000000,0.000000,0.000000,0.000000,0.000000;
#CREDIT:Ben Speirs;
#NOTES:
0000
0000
0000
0000
,
1000
0100
0001
0100
1000
0100
0001
0100
,
2000
0000
3001
0000
1000
0010
0100
0000
,
0001
0000
1000
0000
0001
0010
0100
0000
,
2000
3001
0200
0310
,
1000
0010
0001
0010
1000
0010
0001
0010
,
2000
0000
3001
0000
1000
0100
0010
0000
,
0002
0203
0320
2030
,
3002
0000
0003
0000
1000
0100
1000
0000
,
0012
2003
3200
0310
,
0001
1000
0001
1000
0010
0010
0100
0100
,
0002
2003
3100
1100
,
2000
3002
0103
0101
,
2100
3002
0023
0130
,
1000
0001
1000
0001
0100
0100
0010
0010
,
1010
0101
0011
1100
,
0001
0000
1000
0000
0001
0000
1000
0000
0010
0100
0010
0000
1001
0000
0000
0000
,
0010
0010
1000
0010
0200
0000
0301
0000
,
1100
0101
1000
1001
,
0010
0010
1000
0010
0020
0000
1030
0000
,
1100
0011
1010
1001
,
0100
0100
0001
0100
0200
0000
0310
1000
,
0200
0320
0032
1003
,
0001
0001
0100
0001
0001
0000
1000
0100
,
2000
3002
0103
1001
,
0001
0100
0010
1000
0100
0010
0001
0000
,
1100
0011
1010
0101
,
1000
0010
1000
0001
0010
0001
1000
0000
,
0010
0000
0000
0100
0000
0000
0001
0000
0000
1000
0000
0000
1001
0000
0000
0000
,
0002
0100
0000
0103
,
2000
0100
0000
3100
,
0002
0010
0000
0013
,
1000
0010
0001
0100
,
2000
0100
0010
3001
,
0002
0010
0100
1003
,
1001
0110
1001
0110
,
1000
0000
0001
0000
1000
0000
0001
0000
0100
0010
0100
0000
1001
0000
0000
0000
,
0010
0010
1000
0010
0020
0000
0130
0001
,
0020
0230
2300
3001
,
1000
1000
0010
1000
1000
0000
0001
0010
,
0002
2003
3010
1001
,
1000
0010
0100
0001
0010
0100
1000
0000
,
0011
1100
0101
1010
,
0001
0100
0001
1000
0100
1000
0001
0000
,
0100
0100
0010
0010
,
2000
0100
3010
1010
,
0001
1000
0001
0000
0100
0010
0100
0000
,
0001
1000
0001
0010
0100
0010
0001
0000
,
1000
0000
0000
0100
0000
0000
0010
0000
0000
0001
0000
0000
1001
0000
0000
0000
,
0020
1000
0000
0130
,
0200
0001
0000
0310
,
2000
0000
0000
0000
3100
0000
0010
0001
,
0200
0000
0310
0000
1000
0001
1000
0000
,
0101
0000
0000
0000
;

//---------------dance-single - ----------------
#NOTEDATA:;
#CHARTNAME:;
#STEPSTYPE:dance-single;
#DESCRIPTION:;
#CHARTSTYLE:;
#DIFFICULTY:Medium;
#METER:5;
#RADARVALUES:0.311138,0.426695,0.254237,0.305085,0.000000,191.000000,30.000000,36.000000,0.000000,0.000000,0.000000,0.000000,0.000000,0.311138,0.426695,0.254237,0.305085,0.000000,191.000000,30.000000,36.000000,0.000000,0.000000,0.000000,0.000000,0.000000;
#CREDIT:Ben Speirs;
#NOTES:
0000
0000
0000
0000
,
1000
0000
0010
0000
0100
0000
0001
1000
,
0001
0000
0100
0000
,
0010
0000
1000
0000
0001
0000
1000
0100
,
1000
0000
0001
0000
,
0100
0000
0001
0000
1000
0000
0010
0100
,
0010
0000
1000
0000
,
0001
0001
1000
1000
,
0100
0000
1000
0000
,
0002
0023
0130
0000
,
0010
0001
1000
1000
,
0010
0010
1001
0000
,
0100
0100
1001
0000
,
2000
3020
0130
0000
,
0010
1000
0100
0010
,
0011
1010
0011
1010
,
1001
0000
0110
0000
0001
1000
0001
0000
,
2200
3300
0001
1000
,
0010
1000
0001
0000
0100
0000
0010
0000
,
0202
0303
0001
1000
,
0010
1000
0001
0000
0010
0001
1000
0000
,
2200
0000
3300
0000
0001
1000
0100
0010
,
0001
1000
0010
0100
,
2002
3003
0010
0010
,
1000
0100
1000
0000
0001
0100
0001
0000
,
2200
3300
0202
0303
,
1000
0000
0001
0000
0100
0010
0100
0000
,
0101
0000
0000
1010
0000
0000
1001
0000
,
0100
0100
0010
0110
,
0002
0000
0000
0013
,
2000
0000
0000
3010
,
0002
0000
0000
0103
,
2000
0000
0000
3100
,
0001
1000
0001
0000
,
0100
0010
0100
0000
,
0010
0010
0100
0100
,
0110
0000
1001
0000
0100
0010
0100
0000
,
2002
3003
0100
1000
,
0010
1000
0010
0000
1000
0000
0001
0000
,
0202
0303
1000
0001
,
0010
0001
1000
0000
0100
1000
0010
0000
,
0202
0000
0303
0000
1000
0000
0001
1000
,
0100
0000
0010
0000
0001
1000
0010
0000
,
2002
3003
0100
0100
,
0010
1000
0010
0000
1000
0100
1000
0000
,
0022
0033
2020
3030
,
0001
0001
1000
1000
,
1010
0000
0000
0101
0000
0000
1001
0000
,
0010
0000
0010
0000
1000
0100
0010
0000
,
0002
0003
0010
0010
,
0200
0300
1000
1000
,
0020
0030
0100
0001
,
2000
0000
3000
0000
0100
0010
0001
0000
,
1100
0000
0000
0000
;

//---------------dance-single - ----------------
#NOTEDATA:;
#CHARTNAME:;
#STEPSTYPE:dance-single;
#DESCRIPTION:;
#CHARTSTYLE:;
#DIFFICULTY:Easy;
#METER:3;
#RADARVALUES:0.188862,0.247034,0.050847,0.144068,0.000000,133.000000,6.000000,17.000000,0.000000,0.000000,0.000000,0.000000,0.000000,0.188862,0.247034,0.050847,0.144068,0.000000,133.000000,6.000000,17.000000,0.000000,0.000000,0.000000,0.000000,0.000000;
#CREDIT:Ben Speirs;
#NOTES:
0000
0000
0000
0000
,
0100
0000
0010
0000
,
1000
0000
0001
0000
,
1000
0100
0100
0010
,
0001
0000
1000
1000
,
0010
0000
0100
0000
,
0001
0000
1000
0000
,
0001
0001
1000
0010
,
0010
0000
0100
0100
,
0002
0023
0230
0300
,
1000
0000
0001
0000
,
0100
0100
0100
0000
,
0010
0010
0010
0000
,
2000
3200
0320
0030
,
0001
0000
1000
0000
,
0010
0010
0010
0000
,
0100
0100
0100
1001
,
1001
0000
0100
0000
,
1000
0100
0010
0001
,
0100
0000
0010
0000
,
1000
1000
0001
0001
,
0100
0000
0010
0000
,
1000
0001
1000
0001
,
0010
0000
0100
0000
,
1000
1000
0100
0100
,
0020
0000
0000
0030
,
0001
0001
1000
1000
,
0010
0000
0100
0000
,
2002
0000
0000
3003
,
0020
0000
0000
0030
,
2000
0000
0000
3000
,
0200
0000
0000
0300
,
0010
0000
0010
0000
,
0002
0000
0000
0003
,
0200
0000
0000
0300
,
0010
0010
1000
1000
,
0001
0100
0010
1001
,
1001
0000
0010
0000
,
0001
0010
0100
1000
,
0010
0000
0100
0000
,
0001
0001
1000
1000
,
0010
0000
0100
0000
,
0001
1000
0001
1000
,
0100
0000
0010
0000
,
0001
0001
0010
0010
,
0200
0000
0000
0300
,
1000
1000
0001
0001
,
0100
0000
0010
0000
,
2002
0000
0000
3003
,
0100
0000
0010
0000
,
1000
0000
0000
0000
,
0100
0000
0010
0000
,
0001
0000
1000
1000
,
0010
0000
0000
0000
;

//---------------dance-single - ----------------
#NOTEDATA:;
#CHARTNAME:;
#STEPSTYPE:dance-single;
#DESCRIPTION:;
#CHARTSTYLE:;
#DIFFICULTY:Beginner;
#METER:1;
#RADARVALUES:0.106538,0.157203,0.042373,0.000000,0.000000,83.000000,5.000000,0.000000,0.000000,0.000000,0.000000,0.000000,0.000000,0.106538,0.157203,0.042373,0.000000,0.000000,83.000000,5.000000,0.000000,0.000000,0.000000,0.000000,0.000000,0.000000;
#CREDIT:Ben Speirs;
#NOTES:
0000
0000
0000
0000
,
1000
0000
0000
0000
,
0001
0000
0000
0000
,
0010
0000
0010
0000
,
0001
0000
0000
0000
,
0100
0000
0000
0000
,
0010
0000
0000
0000
,
1000
0000
1000
0000
,
0100
0000
0000
0000
,
1000
1000
1000
0000
,
0010
0000
0000
0000
,
0100
0000
0100
0000
,
0001
0000
1000
0000
,
0010
0010
0010
0000
,
0100
0000
0000
0000
,
0001
0000
1000
0000
,
0010
0010
0010
0000
,
1001
0000
0000
0000
,
1000
0000
0001
0000
,
0100
0000
0000
0000
,
0001
0000
1000
0000
,
0010
0000
0000
0000
,
0100
0000
0100
0000
,
0001
0000
0000
0000
,
1000
0000
1000
0000
,
0100
0000
0000
0000
,
0010
0000
0010
0000
,
1001
0000
0000
0000
,
0010
0000
0000
0000
,
0100
0000
0000
0000
,
0001
0000
0000
0000
,
1000
0000
0000
0000
,
0010
0000
0010
0000
,
0000
1000
1000
0000
,
0000
0001
0001
0000
,
0100
0000
0100
0000
,
0010
0010
0010
0000
,
1001
0000
0000
0000
,
0001
0000
1000
0000
,
0010
0000
0000
0000
,
1000
0000
0100
0000
,
0010
0000
0000
0000
,
0001
0000
0001
0000
,
0100
0000
0000
0000
,
0010
0000
0010
0000
,
1000
0000
0000
0000
,
0001
0000
0001
0000
,
0100
0000
0000
0000
,
0110
0000
0000
0000
,
1001
0000
0000
0000
,
1000
0000
0010
0000
,
0100
0000
0000
0000
,
0001
0000
1000
1000
,
1000
0000
0000
0000
;

//---------------dance-double - ----------------
#NOTEDATA:;
#CHARTNAME:;
#STEPSTYPE:dance-double;
#DESCRIPTION:;
#CHARTSTYLE:;
#DIFFICULTY:Challenge;
#METER:7;
#RADARVALUES:0.434625,0.449153,0.237288,0.288136,0.042373,297.000000,28.000000,34.000000,0.000000,0.000000,0.000000,0.000000,0.000000,0.434625,0.449153,0.237288,0.288136,0.042373,297.000000,28.000000,34.000000,0.000000,0.000000,0.000000,0.000000,0.000000;
#CREDIT:Ben Speirs;
#NOTES:
// measure 0
00000000
00000000
00000000
00000000
,  // measure 1
00000001
00000100
00001000
00000100
00000001
00000010
00001000
00000010
,  // measure 2
00000002
00000000
00001003
00000000
00000100
00010000
00001000
00000000
,  // measure 3
00010000
00000000
00110000
00000000
10000000
00100000
00010000
00100000
,  // measure 4
20000000
00000000
31000000
00000000
00100000
00010000
01000000
00000000
,  // measure 5
00010000
00100000
10000000
00100000
00010000
01000000
10000000
01000000
,  // measure 6
00020000
00000000
10030000
00000000
01000000
00100000
00010000
00000000
,  // measure 7
00100000
00110000
00011000
00001010
,  // measure 8
00000001
00001000
00000010
00000000
00000100
00000001
00001000
00000000
,  // measure 9
00000001
00000010
00001000
00010000
00200000
00000000
10300000
00000000
,  // measure 10
00010000
10000000
00010000
10000000
01000000
01000000
00100000
00100000
,  // measure 11
00110000
11000000
01020000
10030000
,  // measure 12
10100000
00000000
00110000
00000000
10000000
00010000
10000000
00000000
,  // measure 13
10000000
01000000
00010000
00001000
00000200
00000000
00000301
00000000
,  // measure 14
00001000
00000001
00001000
00000001
00000010
00000010
00000100
00000100
,  // measure 15
00001100
00000011
00002010
00003001
,  // measure 16
00001000
00000000
00000001
00000000
00001000
00000000
00000001
00000000
00000100
00000010
00000100
00000000
00001001
00000000
00000000
00000000
,  // measure 17
00000100
00000100
00000001
00001000
00002000
00000000
00003010
00000000
,  // measure 18
00001000
00000100
00000010
00000001
00001000
00000010
00010000
00001000
,  // measure 19
00002000
00000000
00103000
00000000
00010000
00100000
00010000
10000000
,  // measure 20
10100000
00000000
01010000
00000000
10000000
00010000
10000000
00000000
,  // measure 21
00200000
00010000
10000000
01300000
,  // measure 22
00100000
10000000
01000000
00000000
00100000
00010000
01000000
00000000
,  // measure 23
00001000
00000000
00010000
00000000
00000010
00000000
00001000
00000100
,  // measure 24
00000020
00000000
00000032
00000000
00001003
00000010
00001000
00000000
,  // measure 25
00000102
00000000
00001003
00000000
00000100
00001000
00000010
00000000
,  // measure 26
00001000
00000100
00010000
00001000
00100000
00010000
20000000
00000000
,  // measure 27
30100000
01000000
01000000
00010000
00100000
00100000
00001000
00010000
,  // measure 28
00000010
00010000
00000000
00000010
00010000
00000000
00000010
00010000
00000000
00000010
00010000
00000000
00001010
00000000
00000000
00000000
,  // measure 29
00000200
00000001
00000000
00000301
,  // measure 30
00000002
00000010
00000000
00000013
,  // measure 31
00000020
00000100
00000000
00000130
,  // measure 32
00001000
00001000
00000100
00000100
,  // measure 33
00020000
00032000
00203000
00320000
,  // measure 34
20030000
00000000
00000000
00000000
30200000
00000000
00000000
00000000
02300000
00000000
00000000
03000000
00010000
00000000
00000000
00000000
,  // measure 35
01010000
11000000
00110000
10100000
,  // measure 36
00010000
00000000
10000000
00000000
00100000
00000000
01000000
00000000
00010000
10000000
00010000
00000000
10010000
00000000
00000000
00000000
,  // measure 37
00100000
00100000
10000000
00010000
00020000
00000000
01030000
00000000
,  // measure 38
00010000
00100000
01000000
10000000
00010000
01000000
00001000
00010000
,  // measure 39
00020000
00000000
00030100
00000000
00001000
00000100
00001000
00000001
,  // measure 40
00000101
00000000
00001010
00000000
00000001
00001000
00000001
00000000
,  // measure 41
00000200
00001000
00000001
00000310
,  // measure 42
00000100
00000001
00000010
00000000
00000100
00001000
00000010
00000000
,  // measure 43
00010000
00000000
00001000
00000000
01000000
00000000
00010000
00100000
,  // measure 44
02000000
00000000
23000000
00000000
30010000
01000000
00010000
00000000
,  // measure 45
20100000
00000000
30010000
00000000
00100000
00010000
01000000
00000000
,  // measure 46
00010000
00100000
00001000
00010000
00000100
00001000
00000002
00000000
,  // measure 47
00000103
00000010
00000010
00001000
00000100
00000100
00010000
00001000
,  // measure 48
01000000
00001000
00000000
01000000
00001000
00000000
01000000
00001000
00000000
01000000
00001000
00000000
01010000
00000000
00000000
00000000
,  // measure 49
20000000
00000000
31000000
00000000
00100000
00010000
10000000
00100000
,  // measure 50
02000000
03010000
00100000
00101000
,  // measure 51
00002000
00013000
00001000
00000100
,  // measure 52
00000001
00000000
00001000
00000000
00000100
00000010
00000001
00000000
,  // measure 53
00001100
00000000
00000000
00000000
;
