#TITLE:The Tiki, Tiki, Tiki Room;
#SUBTITLE:;
#ARTIST:Disney Grooves;
#TITLETRANSLIT:;
#SUBTITLETRANSLIT:;
#ARTISTTRANSLIT:;
#CREDIT:;
#BANNER:;
#BACKGROUND:;
#LYRICSPATH:;
#CDTITLE:./CDTITLES/DanceDanceRevolution Disney Grooves.png;
#MUSIC:The Tiki, Tiki, Tiki Room.mp3;
#OFFSET:-0.688;
#SAMPLESTART:26.200;
#SAMPLELENGTH:15.000;
#SELECTABLE:YES;
#BPMS:0.000=93.000;
#STOPS:;
#BGCHANGES:;

//---------------dance-single - ----------------
#NOTES:
     dance-single:
     :
     Beginner:
     1:
     0.057,0.090,0.000,0.000,0.000:
0000
0000
0000
0000
,
0000
0000
0000
0000
,
0000
0000
0000
0000
,
0000
0000
0000
0000
,
1000
0000
0000
0000
,
0001
0000
0000
0000
,
0010
0000
0000
0000
,
0100
0000
0000
0000
,
0010
0000
0000
0000
,
0001
0000
0000
0000
,
1000
0000
1000
0000
,
0010
0000
0000
0000
,
0001
0000
0001
0000
,
0010
0000
0000
0000
,
1000
0000
1000
0000
,
0010
0000
0000
0000
,
0001
0000
0001
0000
,
0010
0000
0000
0000
,
1000
0000
0000
0000
,
0010
0000
0000
0000
,
0001
0000
0000
0000
,
0010
0000
0000
0000
,
0000
0000
0000
0000
,
0001
0000
0001
0000
,
0010
0000
0000
0000
,
1000
0000
1000
0000
,
0010
0000
0000
0000
,
0000
0000
0000
0000
,
0010
0000
0000
0000
,
0001
0000
0001
0000
,
0100
0000
0000
0000
,
1000
0000
0000
0000
,
0001
0000
0000
0000
,
1000
0000
0000
0000
,
0010
0010
0010
0000
,
0001
0000
0000
0000
,
1000
0000
0000
0000
,
0001
0000
0000
0000
;

//---------------dance-single - ----------------
#NOTES:
     dance-single:
     :
     Easy:
     2:
     0.097,0.128,0.000,0.000,0.000:
0000
0000
0000
0000
,
0000
0000
0000
0000
,
0000
0000
0000
0000
,
0000
0000
0000
0000
,
1000
0000
1000
0000
,
0001
0000
0001
0000
,
0010
0010
0000
0000
,
0100
0000
0100
0000
,
0010
0010
0000
0000
,
0001
0000
0001
0000
,
1000
1000
1000
0000
,
0010
0010
0010
0000
,
0001
0001
0001
0000
,
0010
0010
0010
0000
,
1000
1000
1000
0000
,
0010
0010
0010
0000
,
0001
0001
0001
0000
,
0010
0010
0010
0000
,
1000
0000
0000
0000
,
0010
0000
0000
0000
,
0001
0000
0000
0000
,
0100
0000
0000
0000
,
0000
0000
0000
0000
,
0001
0001
0001
0000
,
0010
0010
0010
0000
,
1000
1000
1000
0000
,
0010
0010
0010
0000
,
0100
0000
0000
0000
,
0010
0010
0010
0000
,
0001
0001
0001
0000
,
0100
0000
0000
0000
,
1000
0000
0000
0000
,
0001
0000
0000
0000
,
1000
0000
0000
0000
,
0010
0010
0010
0000
,
0001
0000
0000
0000
,
1000
0000
0000
0000
,
0001
0000
0000
0100
;

//---------------dance-single - ----------------
#NOTES:
     dance-single:
     :
     Medium:
     4:
     0.141,0.146,0.019,0.078,0.000:
0000
0000
0000
0000
,
0000
0000
0000
0000
,
0000
0000
0000
0000
,
0000
0000
0000
0000
,
1000
0000
0001
0000
,
0010
0100
1001
0000
,
0010
0000
0001
0001
,
0100
0000
0010
0000
,
0010
0000
1000
1000
,
0001
1000
0000
0000
,
0010
0001
1000
1000
,
0001
0010
0100
0000
,
0010
1000
0001
0001
,
1000
0010
0100
0000
,
0010
0001
1000
1000
,
0001
0010
0100
0000
,
0010
1000
0001
0001
,
1000
0010
0100
0000
,
2000
0000
0000
3000
,
0020
0000
0000
0030
,
0200
0000
0000
0300
,
0002
0000
0000
0003
,
0200
0000
0000
0300
,
0010
0001
1000
1000
,
0001
0010
0100
0000
,
0010
1000
0001
0001
,
1000
0010
0100
0000
,
2000
0000
0002
3003
,
0001
0010
0100
0000
,
0010
1000
0001
0001
,
0200
0000
0000
0300
,
1000
0000
0001
0000
,
0010
0010
0100
0100
,
0001
0000
1000
0000
,
0010
0100
1001
0000
,
1000
0000
0001
0000
,
0010
0010
0100
0100
,
0001
0000
1000
1000
;

//---------------dance-single - ----------------
#NOTES:
     dance-single:
     :
     Hard:
     6:
     0.216,0.202,0.184,0.116,0.000:
0000
0000
0000
0000
,
0000
0000
0000
0000
,
0000
0000
0000
0000
,
0000
0000
0000
0000
,
0001
0101
1000
1100
,
0010
0100
1001
0000
,
0010
0000
0000
0000
1000
1000
1000
0000
,
0100
1000
0010
1000
,
0010
0000
0000
0000
0001
0001
0001
0000
,
1000
0001
0010
0000
,
0010
0000
1000
0000
0001
0001
0001
0000
,
1000
0010
0100
0101
,
0010
0000
0001
0000
1000
1000
1000
0000
,
0001
0010
0100
1100
,
0010
0000
1000
0000
0001
0001
0001
0000
,
1000
0010
0100
0101
,
0010
0000
0001
0000
1000
1000
1000
0000
,
0001
0010
0100
1100
,
0002
0000
0200
0003
,
0020
0300
2000
0030
,
0200
3000
2000
0300
,
0002
3000
0020
0003
,
0200
0000
0000
0330
,
0010
0000
1000
0000
0001
0001
0001
0000
,
1000
0010
0100
0101
,
0010
0000
0001
0000
1000
1000
1000
0000
,
0001
0010
0100
1100
,
0002
0000
2000
3003
,
1000
0010
0100
0101
,
0010
0000
0001
0000
1000
1000
1000
0000
,
0200
0000
0000
0300
,
0001
0101
1000
1100
,
0010
0010
0100
0100
,
1000
1100
0001
0101
,
0010
0100
1001
0000
,
0001
0101
1000
1100
,
0010
0010
0100
0100
,
1000
0000
1100
0000
0001
0000
0101
0100
;
