#TITLE:The Ballad of Davy Crockett;
#SUBTITLE:;
#ARTIST:Disney Grooves;
#TITLETRANSLIT:;
#SUBTITLETRANSLIT:;
#ARTISTTRANSLIT:;
#CREDIT:;
#BANNER:;
#BACKGROUND:;
#LYRICSPATH:;
#CDTITLE:./CDTITLES/DanceDanceRevolution Disney Grooves.png;
#MUSIC:The Ballad of Davy Crockett.mp3;
#OFFSET:-0.045;
#SAMPLESTART:7.200;
#SAMPLELENGTH:15.000;
#SELECTABLE:YES;
#BPMS:0.000=133.000;
#STOPS:;
#BGCHANGES:;

//---------------dance-single - ----------------
#NOTES:
     dance-single:
     :
     Beginner:
     1:
     0.105,0.136,0.000,0.000,0.000:
0000
0000
0000
0000
,
0000
0000
0000
0000
,
0000
0000
0000
0000
,
0000
0000
0000
0000
,
1000
0000
0000
0000
,
0010
0000
0010
0000
,
0010
0000
0000
0000
,
0001
0000
0000
0000
,
1000
0000
1000
0000
,
0001
0000
0001
0000
,
0100
0000
0000
0000
,
0001
0000
0001
0000
,
0010
0010
0000
0000
,
1000
0000
1000
0000
,
0100
0000
0000
0000
,
0001
0000
0000
0000
,
0001
0000
0000
0000
,
0010
0000
0010
0000
,
0010
0000
0000
0000
,
1000
0000
0000
0000
,
0001
0000
0001
0000
,
1000
0000
1000
0000
,
0100
0000
0000
0000
,
1000
0000
1000
0000
,
0010
0010
0000
0000
,
0001
0000
0001
0000
,
0100
0000
0000
0000
,
1000
0000
0000
0000
,
0100
0000
0000
0000
,
0100
0000
0000
0000
,
0010
0000
0000
0000
,
0000
0000
0000
0000
,
0010
0000
0000
0000
,
0001
0000
0000
0000
,
1000
0000
1000
0000
,
0001
0000
0001
0000
,
0100
0000
0000
0000
,
0001
0000
0001
0000
,
0010
0010
0000
0000
,
1000
0000
1000
0000
,
0100
0000
0000
0000
,
0001
0000
0000
0000
,
0100
0000
0000
0000
,
0010
0000
0000
0000
,
0100
0000
0000
0000
,
0010
0000
0000
0000
,
1000
0000
1000
0000
,
0001
0000
0001
0000
,
1000
0000
0001
0000
,
1000
0000
0001
0000
,
0010
0010
0000
0000
,
0001
0000
0001
0000
,
0100
0000
0000
0000
,
0010
0000
0000
0000
,
0010
0010
0000
0000
,
1000
0000
1000
0000
,
0100
0000
0000
0000
,
0000
0000
0000
0010
;

//---------------dance-single - ----------------
#NOTES:
     dance-single:
     :
     Easy:
     2:
     0.143,0.163,0.000,0.000,0.000:
0000
0000
0000
0000
,
0000
0000
0000
0000
,
0000
0000
0000
0000
,
0000
0000
0000
0000
,
1000
0000
0000
0000
,
0010
0010
0010
0000
,
0010
0000
0000
0000
,
0001
0001
0001
0000
,
1000
0000
1000
0000
,
0001
0000
0001
0000
,
0100
0000
0100
0000
,
0001
0001
0001
0000
,
0010
0010
0000
0000
,
1000
0000
1000
0000
,
0100
0000
0100
0100
,
0001
0000
0000
0000
,
0001
0000
0000
0000
,
0010
0010
0010
0000
,
0010
0000
0000
0000
,
1000
1000
1000
0000
,
0001
0000
0001
0000
,
1000
0000
1000
0000
,
0100
0000
0000
0000
,
1000
1000
1000
0000
,
0010
0010
0000
0000
,
0001
0000
0001
0000
,
0100
0000
0100
0100
,
1000
0000
0000
0000
,
0100
0000
0000
0000
,
0100
0000
0000
0000
,
0010
0000
0000
0000
,
0000
0000
0000
0000
,
0010
0000
0000
0000
,
0001
0001
0001
0000
,
1000
0000
1000
0000
,
0001
0000
0001
0000
,
0100
0000
0100
0000
,
0001
0001
0001
0000
,
0010
0010
0000
0000
,
1000
0000
1000
0000
,
0100
0000
0100
0100
,
0001
0000
0000
0000
,
0100
0000
0000
0000
,
0010
0010
0010
0000
,
0100
0000
0000
0000
,
0010
0010
0010
0000
,
1000
0000
1000
0000
,
0001
0000
0001
0000
,
1000
0000
0001
0000
,
1000
0000
0001
0000
,
0010
0010
0000
0000
,
0001
0000
0001
0000
,
0100
0000
0100
0100
,
0010
0000
0000
0000
,
0010
0010
0000
0000
,
1000
0000
1000
0000
,
0100
0000
0000
0000
,
0010
0010
1000
0010
;

//---------------dance-single - ----------------
#NOTES:
     dance-single:
     :
     Medium:
     4:
     0.218,0.245,0.094,0.198,0.000:
0000
0000
0000
0000
,
0000
0000
0000
0000
,
0000
0000
0000
0000
,
0000
0000
0000
0000
,
0100
0000
0001
0000
,
0010
1000
0010
0000
,
0001
0000
1000
0000
,
0010
0001
1000
0000
,
1000
1000
1000
0000
,
0001
0001
0001
0000
,
0100
0000
0100
0000
,
0001
1000
1001
0000
,
0010
0010
0100
0100
,
2000
0000
0002
3003
,
0100
0000
0010
0000
,
2002
0000
0000
3003
,
0100
0000
1000
0000
,
0010
0001
0010
0000
,
0100
0000
0001
0000
,
0010
1000
0001
0000
,
0001
0001
0001
0000
,
1000
1000
1000
0000
,
0100
0000
0100
0000
,
1000
0001
1001
0000
,
0010
0010
0100
0100
,
0002
0000
2000
3003
,
0100
0000
0010
0000
,
2002
0000
0000
3003
,
0100
0000
0100
0000
,
0010
0000
0010
0000
,
2002
0000
0000
0000
,
0000
0000
0000
3003
,
0100
0000
1000
0000
,
0010
0001
1000
0000
,
1000
1000
1000
0000
,
0001
0001
0001
0000
,
0100
0000
0100
0000
,
0001
1000
1001
0000
,
0010
0010
0100
0100
,
2000
0000
0002
3003
,
0100
0000
0010
0000
,
2002
0000
0000
3003
,
0100
1000
0100
0000
,
0010
0000
0100
0000
,
0100
0001
0010
0000
,
0010
0000
1000
0000
,
0100
0010
1000
0000
,
0100
0010
0001
0000
,
1000
0000
0001
0000
,
1000
0001
1001
0000
,
0010
0010
0100
0100
,
0002
0000
2000
3003
,
0100
0000
0010
0000
,
2002
0000
0000
3003
,
0010
0010
0100
0100
,
2000
0000
0002
3003
,
0020
0000
0000
0030
,
1000
0001
1000
1001
;

//---------------dance-single - ----------------
#NOTES:
     dance-single:
     :
     Hard:
     6:
     0.305,0.326,0.282,0.207,0.000:
0000
0000
0000
0000
,
0000
0000
0000
0000
,
0000
0000
0000
0000
,
0000
0000
0000
0000
,
0010
0001
1000
0010
,
0100
0001
0100
0001
,
0010
1000
0001
0010
,
0100
1000
0001
0110
,
0001
0000
0001
1001
,
1000
0000
1000
1001
,
0010
0010
1000
1000
,
0100
0010
1001
0000
,
0110
1001
0010
0010
,
0002
0000
2000
3003
,
0010
1000
0100
1000
,
2002
0000
0000
3003
,
0010
1000
0001
0010
,
0100
1000
0100
1000
,
0010
0001
1000
0010
,
0100
0001
1000
0110
,
1000
0000
1000
1001
,
0001
0000
0001
1001
,
0010
0010
0001
0001
,
0100
0010
1001
0000
,
0110
1001
0010
0010
,
2000
0000
0002
3003
,
0010
0001
0100
0001
,
2002
0000
0000
3003
,
0010
0010
1000
1000
,
0001
0001
0100
0100
,
2002
0000
0000
0000
,
0000
0000
0000
3003
,
0010
1000
0001
0010
,
0100
1000
0001
0110
,
0001
0000
0001
1001
,
1000
0000
1000
1001
,
0010
0010
1000
1000
,
0100
0010
1001
0000
,
0110
1001
0010
0010
,
0002
0000
2000
3003
,
0010
1000
0100
1000
,
2002
0000
0000
3003
,
0010
0001
0010
1000
,
0100
0001
0010
0001
,
0010
1000
0100
0001
,
0100
1000
0001
1001
,
0010
0100
0001
0001
,
0010
0100
1000
1000
,
0001
0001
1000
1000
,
0010
1000
0001
0010
,
0110
1001
0010
0010
,
2000
0000
0002
3003
,
0010
0001
0100
0001
,
2002
0000
0000
3003
,
0110
1001
0010
0010
,
0002
0000
2000
3003
,
0220
0000
0000
0330
,
0001
1000
0001
1001
;
