#TITLE:THE PARTY'S JUST BEGUN;
#ARTIST:THE CHEETAH GIRLS;
#FILE:THE PARTY'S JUST BEGUN.mp3;
#BPM:104.000;
#GAP:1764;
#SAMPLESTART:13.264;
#SAMPLELENGTH:15.000;
#CDTITLE:./CDTITLES/Dance Dance Revolution Disney Channel Edition.png;
#SINGLE:BEGINNER:1:
00000000
00000000
00000000
80000000
20002000
60000000
40000000
80000000
20000000
60000000
40000000
20000000
80000000
60000000
20000000
40000000
20002000
80000000
20000000
60000000
40000000
B0000000
40000000
60000000
20000000
80000000
40000000
60000000
20000000
80000000
60000000
40000000
20002000
80000000
20000000
40000000
60006000
20000000
80000000
40000000
60006000
60000000
20000000
80000000
40004000
20000000
80000000
40000000
60004000
B0000000
;
#SINGLE:BASIC:3:
00000000
00000000
00000000
40400000
60608000
A0002000
40406000
80002000
80802000
60004000
80208000
40006000
40206000
A0004000
B0008000
A0002000
80602040
60004000
60206000
80002000
40604000
B0008000
B0002000
A0006000
A0008020
40008000
60604000
20008000
20208000
40006000
20802000
60004000
60804000
A0006000
B0002000
A0008000
20408060
40006000
40804000
20008000
60406000
80206000
60408000
20802000
80402060
40006000
40204000
80002000
60406000
20000000
;
#SINGLE:ANOTHER:6:
00000000
00000000
00000000
30804280
6!60B!40B820
80406480
20608240
40204640
28206862
80208480
20604240
80206460
48206820
30804280
70206820
42606040
A0B08020
60408280
40602820
602040A0
60804848
20608040
20806640
B0208060
88204060
20604620
80402860
60806460
82804240
80406860
20804640
62804280
70206820
A0B02080
40602820
30804280
60204080
30804280
70206820
42606040
A040B020
60408280
40602820
602040A0
68604840
B0802040
B0208680
20608040
24608020
B0000000
;
#SINGLE:MANIAC:7:
00000000
00000000
00000000
40800268
20406464
80206860
48402620
68604240
84286284
20800682
40800482
60800248
46464828
46802480
86402460
68404860
24268248
20608240
82648462
80608240
82648268
A0428682
10864090
A0682428
90246010
60804240
62608480
42406860
26824826
80200428
60200628
40200862
64646282
64208620
24608640
42606240
86842862
80402860
28462648
20402860
28462842
64802680
84602640
48606840
26248268
20408260
82468642
80408260
82468248
30000000
;
#DOUBLE:BASIC:3:
00000000
00000000
00000000
00000000
60602000
B0002000
60600000
00000000
00000000
00006000
80206000
40002000
60800000
60000000
00000000
00000000
60006000
60002000
40804000
20006000
00600060
60000000
00000000
00000000
60008060
20008000
40402000
60000000
00000000
00000000
60006000
00002000
80402080
60000000
60000000
00000000
00000000
00000000
60006000
20008000
60406040
80006000
60000000
00000000
00000000
00000000
60006000
80002000
60406040
20000000
:
00000000
00000000
00000000
40400000
00000000
00000000
00004000
20006000
80802000
40000000
00000000
00000000
00004000
40002000
A0006000
B0002000
00400040
00000000
00000000
00000000
40004000
40002000
B0008000
A0004000
40000000
00000000
00000000
00004000
20206000
80002000
00400000
40000000
00000000
00004000
40008000
A0006000
40604060
40002000
00400000
00000000
00000000
00000000
40002000
A0006000
40604060
40008000
00400000
00000000
00000000
00000000
;
#DOUBLE:ANOTHER:6:
00000000
00000000
00000000
00000000
00006!603!20
10602820
60800600
00000000
00000000
00600600
80204640
80206800
60600000
00000000
00006060
28206040
A0906000
00000000
00006060
82804060
42426262
80006000
00006006
60806020
8!809!606000
00000000
60008620
80402860
2!20206!6060
00000000
00000600
86208460
8!80806!6060
00000000
00006060
28206040
A0906000
00000000
00006060
82804060
82482060
00000000
00006080
62804060
90806060
00000000
00006020
86408020
48482626
B0000000
:
00000000
00000000
00000000
90802460
2!201!404000
00000000
00004040
20804640
62624242
80004040
00000000
00000040
02024848
2!20308620
70200400
00000000
00004010
8!80902680
10800400
00000000
00000000
00400080
40200040
4!40400000
00004!401!20
30402480
00400000
00000000
004!40402!20
10608240
80204040
00000000
004!40408!80
A!20308620
70200400
00000000
00004010
8!80902680
10800400
00000000
00000402
8!80902640
10200400
00000000
00404020
4!40702640
A0400400
00000000
00000000
00000000
;
#DOUBLE:MANIAC:7:
00000000
00000000
00000000
00000000
00062600
00000000
00000600
20608640
84260624
8!80700268
00600000
00000000
00060862
84202480
86006000
00000000
00000066
24808420
26006000
00000000
00000066
60086462
A0860000
00000000
00062860
00000000
00000600
80602640
24860684
2!20100862
00600000
00000000
00060268
24808420
26006000
00000000
00000066
84202480
86006000
00000000
00000066
24602690
06000000
00000000
00660022
84608630
06000000
00000000
00660088
B0000000
:
00000000
00000000
00000000
20B!B0B080
62400048
6!60B08260
82408040
04000000
00004000
00000000
4!40400248
2!20300862
84204000
00000000
00400480
62804280
66224400
00000000
00400420
68204820
66!6984400
40400000
00004282
B0824628
68400004
2!20300860
28402040
04000000
00004000
00000000
4!40400842
8!80900268
24804000
00000000
00400420
68204820
66884400
00000000
00400480
62804280
66224400
00000000
40204630
84602870
22004400
00000000
408046A0
846082B0
88004400
00000000
;
