#TITLE:Supercalifragilisticexpialidocious;
#SUBTITLE:;
#ARTIST:Disney Grooves;
#TITLETRANSLIT:;
#SUBTITLETRANSLIT:;
#ARTISTTRANSLIT:;
#CREDIT:;
#BANNER:;
#BACKGROUND:;
#LYRICSPATH:;
#CDTITLE:./CDTITLES/DanceDanceRevolution Disney Grooves.png;
#MUSIC:Supercalifragilisticexpialidocious.mp3;
#OFFSET:-0.062;
#SAMPLESTART:0.900;
#SAMPLELENGTH:15.000;
#SELECTABLE:YES;
#BPMS:0.000=140.000,116.000=145.000,124.000=150.000;
#STOPS:;
#BGCHANGES:;

//---------------dance-single - ----------------
#NOTES:
     dance-single:
     :
     Beginner:
     2:
     0.130,0.175,0.000,0.000,0.000:
0000
0000
0000
0000
,
0001
0000
0000
0000
,
1000
0000
0000
0000
,
1000
0000
0000
0000
,
0001
0000
0000
0000
,
1000
0000
0000
0000
,
0001
0000
0000
0000
,
0010
0000
0000
0000
,
0010
0000
0000
0000
,
1000
0000
1000
0000
,
1000
0000
1000
0000
,
0001
0000
0001
0000
,
0001
0000
0000
0000
,
1000
0000
0000
0000
,
0010
0000
0000
0000
,
0001
0000
0000
0000
,
0010
0000
0000
0000
,
1000
0000
1000
0000
,
0001
0000
0001
0000
,
0010
0000
0000
0000
,
0100
0000
0000
0000
,
0001
0000
0000
0000
,
0010
0000
0000
0000
,
1000
0000
0000
0000
,
0010
0000
0000
0000
,
0001
0000
0001
0000
,
0010
0000
0010
0000
,
0100
0000
0100
0000
,
1000
1000
1000
0000
,
0001
0001
0000
0000
,
1000
1000
0000
0000
,
0010
0010
0000
0000
,
0010
0010
0000
0000
,
1000
0000
0000
0000
,
0010
0000
0000
0000
,
0001
0000
0000
0000
,
0010
0000
0000
0000
,
1000
0000
1000
0000
,
0001
0000
0001
0000
,
0100
0000
0100
0000
,
1000
1000
1000
0000
,
0001
0000
0000
0000
,
0010
0000
0000
0000
,
1000
0000
0000
0000
,
0010
0000
0000
0000
,
0001
0000
0001
0000
,
0010
0000
0010
0000
,
1000
0000
1000
0000
,
0001
0001
0001
0000
,
1000
0000
0001
0000
,
1000
1000
1000
0000
,
0001
0000
1000
0000
,
0001
0001
0001
0000
;

//---------------dance-single - ----------------
#NOTES:
     dance-single:
     :
     Easy:
     3:
     0.181,0.234,0.000,0.000,0.000:
0000
0000
0000
0000
,
0001
0000
0001
0000
,
1000
0000
1000
0000
,
1000
0000
1000
0000
,
0001
0000
0001
0000
,
1000
0000
1000
0000
,
0001
0000
0001
0000
,
0010
0000
0000
0000
,
0010
0000
0000
0010
,
1000
0000
1000
0000
,
1000
0000
1000
1000
,
0001
0000
0001
0000
,
0001
0000
0000
0001
,
1000
0000
0000
0000
,
0010
0000
0010
0000
,
0001
0000
0000
0000
,
0010
0000
0010
0000
,
1000
0000
1000
1000
,
0001
0000
0001
0001
,
0010
0000
0000
0000
,
0100
0000
0000
0000
,
0001
0000
0001
0000
,
0010
0000
0010
0000
,
1000
0000
1000
0000
,
0010
0000
0010
0000
,
0001
0000
0001
0000
,
0010
0000
0010
0000
,
0100
0000
0100
0000
,
1000
1000
1000
0100
,
0001
0001
0000
0001
,
1000
1000
0000
1000
,
0010
0010
0000
0001
,
0010
0010
0000
1000
,
1000
0000
0000
0000
,
0010
0000
0010
0000
,
0001
0000
0000
0000
,
0010
0000
0010
0000
,
1000
0000
1000
1000
,
0001
0000
0001
0001
,
0100
0000
0100
0000
,
1000
1000
1000
0000
,
0001
0000
0001
0000
,
0010
0000
0010
0000
,
1000
0000
1000
0000
,
0010
0000
0010
0000
,
0001
0000
0001
0000
,
0010
0000
0010
0000
,
1000
0000
1000
0000
,
0001
0001
0001
0001
,
1000
0000
0001
0000
,
1000
1000
1000
1000
,
0001
0000
1000
0000
,
0001
0001
0001
0000
;

//---------------dance-single - ----------------
#NOTES:
     dance-single:
     :
     Medium:
     5:
     0.242,0.292,0.078,0.022,0.000:
0000
0000
0000
0000
,
0001
0000
1000
0000
,
0010
1000
0100
0000
,
1000
0000
0001
0000
,
0010
0001
0100
0000
,
0001
0000
1000
0000
,
0010
1000
0010
0000
,
0100
0000
0010
0000
,
1000
0001
1000
1001
,
0100
0100
0100
0100
,
0001
0001
0001
0001
,
0010
0010
0010
0010
,
1000
1000
1000
0000
,
1000
0000
0001
0000
,
0010
0001
0100
0000
,
0001
0000
1000
0000
,
0010
1000
0100
0000
,
1000
0000
0001
0000
,
0010
0001
0010
0000
,
0100
0000
0010
0000
,
2002
0000
0000
3003
,
0001
0000
1000
0000
,
0010
1000
0100
0000
,
1000
0000
0001
0000
,
0010
0001
0100
0000
,
0001
0000
1000
0000
,
0010
1000
0010
0000
,
0100
0000
0010
0000
,
1000
0001
1000
1001
,
0100
0100
0100
0100
,
0001
0001
0001
0001
,
0010
0010
0010
0010
,
1000
1000
1000
1000
,
1000
0000
0001
0000
,
0010
0001
0100
0000
,
0001
0000
1000
0000
,
0010
1000
0100
0000
,
1000
0000
0001
0000
,
0100
0001
0010
0000
,
0100
0000
0001
0000
,
1000
0001
1001
0000
,
0001
0000
1000
0000
,
0010
1000
0100
0000
,
1000
0000
0001
0000
,
0010
0001
0100
0000
,
0001
0000
1000
0000
,
0010
1000
0010
0000
,
0100
0000
0010
0000
,
0001
1000
0001
1001
,
1000
0000
0001
0000
,
1000
0001
1000
1001
,
0001
0000
1000
0000
,
0001
1000
1001
0000
;

//---------------dance-single - ----------------
#NOTES:
     dance-single:
     :
     Hard:
     7:
     0.396,0.321,0.301,0.022,0.000:
0000
0000
0000
0000
,
1000
0000
0010
0000
0001
0100
1000
0000
,
0100
0001
0010
1100
,
0001
0000
0010
0000
1000
0100
0001
0000
,
0100
1000
0010
0101
,
1000
0000
0010
0000
0001
0100
1000
0000
,
0100
0001
0100
1000
,
0010
1010
0100
0101
,
1000
0100
0010
1001
,
0010
0000
1000
0000
0001
0100
0001
0000
,
0010
0000
0001
0000
1000
0100
1000
0000
,
0010
0000
1000
0000
0001
0100
0001
0000
,
0010
0000
0001
0000
1000
0100
1000
0000
,
0001
0000
0010
0000
1000
0100
0001
0000
,
0100
1000
0010
0101
,
1000
0000
0010
0000
0001
0100
1000
0000
,
0100
0001
0010
1100
,
0001
0000
0010
0000
1000
0100
0001
0000
,
0100
1000
0100
0001
,
0010
0001
0100
0001
,
2002
0000
0000
3003
,
1000
0000
0010
0000
0001
0100
1000
0000
,
0100
0001
0010
1100
,
0001
0000
0010
0000
1000
0100
0001
0000
,
0100
1000
0010
0101
,
1000
0000
0010
0000
0001
0100
1000
0000
,
0100
0001
0100
1000
,
0010
1010
0100
0101
,
1000
0100
0010
1001
,
0010
0000
0010
0000
0010
1000
0010
0000
,
1000
0000
1000
0000
1000
0100
1000
0000
,
0100
0000
0100
0000
0100
0001
0100
0000
,
0001
0000
0001
0000
0001
0010
0001
0000
,
0001
0000
0010
0000
1000
0100
0001
0000
,
0100
1000
0010
0101
,
1000
0000
0010
0000
0001
0100
1000
0000
,
0100
0001
0010
1100
,
0001
0000
0010
0000
1000
0001
0100
0000
,
0010
1000
0100
0001
,
0010
0000
1000
0000
,
0001
1000
0110
0000
,
1000
0000
0010
0000
0001
0100
1000
0000
,
0100
0001
0010
1100
,
0001
0000
0010
0000
1000
0100
0001
0000
,
0100
1000
0010
0101
,
1000
0000
0010
0000
0001
0100
1000
0000
,
0100
0001
0100
1000
,
0010
1010
0100
0101
,
1000
0100
0010
1001
,
0101
0000
1100
0000
,
0010
1000
0001
0110
,
1001
0000
0110
0000
,
1000
0001
0110
0000
;
