#TITLE:Step In Time;
#SUBTITLE:;
#ARTIST:Disney Grooves;
#TITLETRANSLIT:;
#SUBTITLETRANSLIT:;
#ARTISTTRANSLIT:;
#CREDIT:;
#BANNER:Step In Time.png;
#BACKGROUND:Step In Time-bg.png;
#LYRICSPATH:;
#CDTITLE:./CDTITLES/DanceDanceRevolution Disney Grooves.png;
#MUSIC:Step In Time.mp3;
#OFFSET:-1.117;
#SAMPLESTART:14.700;
#SAMPLELENGTH:15.000;
#SELECTABLE:YES;
#BPMS:0.000=140.000;
#STOPS:;
#BGCHANGES:;

//---------------dance-single - ----------------
#NOTES:
     dance-single:
     :
     Beginner:
     1:
     0.105,0.134,0.000,0.000,0.000:
0000
0000
0000
0000
,
0000
0000
0000
0000
,
0000
0000
0000
0000
,
0000
0000
0000
0000
,
1000
0000
0000
0000
,
1000
0000
0000
0000
,
0001
0000
0000
0000
,
0001
0000
0000
0000
,
0100
0000
0000
0000
,
0100
0000
0000
0000
,
0100
0000
0000
0000
,
0010
0000
0000
0000
,
0001
0001
0000
0000
,
1000
1000
0000
0000
,
0001
0001
0000
0000
,
1000
0000
0000
0000
,
1000
0000
0000
0000
,
0001
0000
0000
0000
,
0010
0000
0000
0000
,
0001
0000
0000
0000
,
1000
1000
0000
0000
,
0001
0001
0000
0000
,
1000
1000
0000
0000
,
0001
0000
0000
0000
,
0001
0000
0001
0000
,
1000
0000
1000
0000
,
0010
0000
0000
0000
,
1000
0000
0000
0000
,
0001
0001
0000
0000
,
1000
1000
0000
0000
,
0001
0001
0000
0000
,
1000
0000
0000
0000
,
0001
0000
0001
0000
,
1000
0000
1000
0000
,
0010
0000
0010
0000
,
0100
0000
0000
0000
,
1000
0000
1000
0000
,
0001
0000
0001
0000
,
0010
0000
0010
0000
,
0100
0000
0000
0000
,
0001
0000
0000
0000
,
1000
0000
0000
0000
,
0001
0000
0000
0000
,
0100
0000
0000
0000
,
0001
0000
0000
0000
,
0001
0000
0001
0000
,
1000
0000
1000
0000
,
0010
0000
0010
0000
,
0100
0000
0100
0000
,
0001
0000
0000
0000
;

//---------------dance-single - ----------------
#NOTES:
     dance-single:
     :
     Easy:
     2:
     0.155,0.188,0.000,0.000,0.000: // measure 1
0000
0000
0000
0000
,  // measure 2
0000
0000
0000
0000
,  // measure 3
0000
0000
0000
0000
,  // measure 4
0000
0000
0000
0000
,  // measure 5
1000
0000
0000
0000
,  // measure 6
1000
0000
1000
0000
,  // measure 7
0001
0000
0000
0000
,  // measure 8
0001
0000
0001
0000
,  // measure 9
0100
0000
1000
0000
,  // measure 10
0100
0000
0001
0000
,  // measure 11
0100
0000
1000
0000
,  // measure 12
0010
0000
0010
0010
,  // measure 13
0001
0000
0000
0010
,  // measure 14
1000
0000
0000
0100
,  // measure 15
0001
0000
0000
0010
,  // measure 16
1000
0000
0000
0000
,  // measure 17
1000
0000
1000
1000
,  // measure 18
0001
0000
0001
0001
,  // measure 19
0010
0000
0010
0000
,  // measure 20
0010
0000
0000
0100
,  // measure 21
1000
0000
0000
0100
,  // measure 22
0001
0000
0000
0010
,  // measure 23
1000
0000
0000
0100
,  // measure 24
0001
0000
0000
0000
,  // measure 25
0001
0000
0001
0001
,  // measure 26
1000
0000
1000
1000
,  // measure 27
0010
0000
0010
0000
,  // measure 28
1000
0000
0100
0100
,  // measure 29
0001
0001
0000
0001
,  // measure 30
1000
1000
0000
1000
,  // measure 31
0001
0001
0000
0001
,  // measure 32
1000
0000
0000
0000
,  // measure 33
0001
0000
0001
0001
,  // measure 34
1000
0000
1000
1000
,  // measure 35
0010
0000
0010
0000
,  // measure 36
0100
0000
0100
0100
,  // measure 37
1000
0000
1000
1000
,  // measure 38
0001
0000
0001
0001
,  // measure 39
0010
0000
0010
0000
,  // measure 40
0100
0000
0000
0000
,  // measure 41
0001
0000
0000
0010
,  // measure 42
1000
0000
1000
0000
,  // measure 43
0001
0000
0001
0000
,  // measure 44
0100
0000
0100
0000
,  // measure 45
0001
0000
0001
0000
,  // measure 46
0001
0000
0001
0000
,  // measure 47
1000
0000
1000
0000
,  // measure 48
0000
0010
0000
0010
,  // measure 49
0000
0100
0000
0100
,  // measure 50
0001
0000
0000
0000
;

//---------------dance-single - ----------------
#NOTES:
     dance-single:
     :
     Medium:
     4:
     0.191,0.215,0.055,0.066,0.000:
0000
0000
0000
0000
,
0000
0000
0000
0000
,
0000
0000
0000
0000
,
0000
0000
0000
0000
,
1000
0000
0010
0000
,
0001
0000
0010
0000
,
0001
0000
1000
0000
,
0001
1000
0001
0000
,
0100
0000
1000
0000
,
0100
0000
0001
0000
,
0010
0000
0100
0000
,
1000
0001
1000
0000
,
0001
0010
0001
0000
,
1000
0010
1000
0000
,
0001
0010
0001
0000
,
2002
0000
0000
3003
,
1000
0000
1000
1000
,
0001
0000
0001
0001
,
0010
0000
0100
0000
,
0001
1000
0001
0000
,
1000
0010
1000
0000
,
0001
0010
0001
0000
,
1000
0010
1000
0000
,
2002
0000
0000
3003
,
0001
0000
0001
0001
,
1000
0000
1000
1000
,
0010
0000
0010
0000
,
1000
0001
1000
0000
,
0001
0010
0001
0000
,
1000
0010
1000
0000
,
0001
0010
0001
0000
,
2002
0000
0000
3003
,
0001
0000
0010
0010
,
1000
0000
0010
0010
,
0100
0000
0010
0000
,
1000
0001
1000
0000
,
1000
0000
0010
0010
,
0001
0000
0010
0010
,
0100
0000
0010
0000
,
0001
0000
1000
0000
,
1001
0000
0000
0000
,
1000
0000
0010
0000
,
0001
0000
0010
0000
,
0100
0000
0010
0000
,
0001
1000
0001
0000
,
0001
0000
0010
0000
,
1000
0000
0010
0000
,
0100
0000
0010
0000
,
1000
0001
1000
0000
,
1001
0000
0000
0000
;

//---------------dance-single - ----------------
#NOTES:
     dance-single:
     :
     Hard:
     6:
     0.277,0.269,0.230,0.066,0.000:
0000
0000
0000
0000
,
0000
0000
0000
0000
,
0000
0000
0000
0000
,
0000
0000
0000
0000
,
0001
0100
1000
0000
,
1000
0100
0001
0000
,
1001
0000
0110
0000
,
1000
0001
1001
0000
,
0010
0010
0001
0001
,
0010
0010
1000
1000
,
0100
1000
0010
1000
,
0001
1000
0001
1001
,
1000
0100
0001
0100
,
1000
0100
0001
0100
,
1000
0100
0001
0100
,
2002
0000
0000
3003
,
0001
0000
0001
1001
,
1000
0000
1000
1001
,
0100
0001
0010
0001
,
1000
0001
1000
1001
,
0001
0100
1000
0100
,
0001
0100
1000
0100
,
0001
0100
1000
0100
,
2002
0000
0000
3003
,
1000
0000
1000
1001
,
0001
0000
0001
1001
,
0100
0000
0010
0000
,
0001
1000
0001
1001
,
1000
0100
0001
0100
,
1000
0100
0001
0100
,
1000
0100
0001
0100
,
2002
0000
0000
3003
,
1000
0000
1000
1100
,
0001
0000
0001
0101
,
0010
0001
0100
1000
,
0001
1000
0001
1001
,
0001
0000
0001
0101
,
1000
0000
1000
1100
,
0010
1000
0100
0001
,
1000
1000
0001
0001
,
1001
0000
0000
0000
,
0001
0100
1000
0000
,
1000
0100
0001
0000
,
0010
0001
0100
0001
,
1000
0001
1000
1001
,
1000
0100
0001
0000
,
0001
0100
1000
0000
,
0010
1000
0100
1000
,
0001
1000
0001
1000
,
1001
0000
0000
0000
;
