#TITLE:SUITE LIFE THEME SONG;
#SUBTITLE:;
#ARTIST:SUITE LIFE;
#TITLETRANSLIT:;
#SUBTITLETRANSLIT:;
#ARTISTTRANSLIT:;
#CREDIT:;
#BANNER:SUITE LIFE THEME SONG.png;
#BACKGROUND:SUITE LIFE THEME SONG-bg.png;
#LYRICSPATH:;
#CDTITLE:./CDTITLES/Dance Dance Revolution Disney Channel Edition.png;
#MUSIC:SUITE LIFE THEME SONG.mp3;
#OFFSET:-0.067;
#SAMPLESTART:0.020;
#SAMPLELENGTH:15.000;
#SELECTABLE:YES;
#DISPLAYBPM:203.000:211.000;
#BPMS:0.000=204.820;
#STOPS:;
#BGCHANGES:;

//---------------dance-single - ----------------
#NOTES:
     dance-single:
     :
     Beginner:
     1:
     0.129,0.167,0.115,0.000,0.000:
0000
0000
0000
0000
,
0000
0000
0000
0000
,
0000
0000
0000
0000
,
0000
0000
0010
0000
,
0000
0000
0000
0000
,
0000
0000
0001
0000
,
0000
0000
0000
0000
,
0000
0000
1000
0000
,
0000
0000
0010
0000
,
0000
0000
0100
0000
,
0100
0000
0100
0000
,
0000
0000
0001
0000
,
0001
0000
0001
0000
,
0000
0000
1000
0000
,
1000
0000
1000
0000
,
0000
0000
0100
0000
,
0100
0000
0100
0000
,
0000
0000
0010
0000
,
0000
0000
0001
0000
,
0000
0000
0100
0000
,
0000
0000
1000
0000
,
0000
0000
0010
0000
,
0010
0000
0010
0000
,
0000
0000
0100
0000
,
0100
0000
0100
0000
,
0000
0000
1001
0000
,
0000
0000
0000
0000
,
0000
0000
1001
0000
,
0000
0000
0000
0000
,
0000
0000
0110
0000
,
0000
0000
0000
0000
,
0000
0000
0110
0000
,
0000
0000
0000
0000
,
0000
0000
0010
0000
,
0000
0000
0000
0000
,
0000
0000
0100
0000
,
0000
0000
0000
0000
,
0000
0000
0001
0000
,
0000
0000
0000
0000
,
0000
0000
1000
0000
,
0000
0000
0100
0000
,
0000
0000
0010
0000
,
0010
0000
0010
0000
,
0000
0000
0001
0000
,
0001
0000
0001
0000
,
0000
0000
1000
0000
,
1000
0000
1000
0000
,
0000
0000
0010
0000
,
0010
0000
0010
0000
,
0000
0000
0100
0000
,
0000
0000
0001
0000
,
0000
0000
0010
0000
,
0000
0000
1000
0000
,
0000
0000
0100
0000
,
0100
0000
0100
0000
,
0000
0000
0010
0000
,
0010
0000
0010
0000
,
0000
0000
1001
0000
,
0000
0000
0000
0000
,
0000
0000
1001
0000
,
0000
0000
0000
0000
,
0000
0000
0110
0000
,
0000
0000
0000
0000
,
0000
0000
0110
0000
,
0000
0000
0000
0000
,
0000
0000
1001
0000
;

//---------------dance-single - ----------------
#NOTES:
     dance-single:
     :
     Easy:
     3:
     0.237,0.250,0.013,0.204,0.000:
0000
0000
0000
0000
,
0000
0000
0000
0000
,
0000
0000
0000
0000
,
0000
0000
0001
0000
,
1000
0000
0001
0000
,
1000
0000
0100
0000
,
0010
0000
0100
0000
,
0010
0000
0001
0000
,
0100
0000
1000
0000
,
0010
0000
0001
0001
,
0001
0000
1000
0000
,
0100
0000
0010
0000
,
0100
0000
1000
0000
,
0010
0000
0100
0100
,
0100
0000
0001
0000
,
0010
0000
0100
0000
,
0010
0000
0001
0000
,
0100
0000
0020
0000
,
0000
0030
2000
0000
,
0000
3000
0002
0000
,
0000
0003
0200
0000
,
0000
0300
0010
0010
,
0010
0000
1000
0000
,
0100
0000
0001
0000
,
0100
0000
1000
0000
,
0001
0000
2000
0000
,
0000
0000
3010
0000
,
0100
0000
0002
0000
,
0000
0000
0003
0000
,
0010
0000
0200
0000
,
0000
0000
1300
0000
,
0001
0000
0200
0000
,
0000
0000
0301
0000
,
0010
0000
0100
0000
,
1000
0000
0100
0000
,
0010
0000
0001
0000
,
1000
0000
0010
0000
,
1000
0000
0001
0000
,
0100
0000
0010
0000
,
0100
0000
0001
0000
,
0010
0000
1000
0000
,
0100
0000
0001
0001
,
0001
0000
1000
0000
,
0010
0000
0100
0000
,
0010
0000
1000
0000
,
0100
0000
0010
0010
,
0010
0000
0001
0000
,
0100
0000
0010
0000
,
0100
0000
0001
0000
,
0010
0000
0200
0000
,
0000
0300
2000
0000
,
0000
3000
0002
0000
,
0000
0003
0020
0000
,
0000
0030
0100
0100
,
0100
0000
1000
0000
,
0010
0000
0001
0000
,
0010
0000
1000
0000
,
0001
0000
2000
0000
,
0000
0000
3100
0000
,
0010
0000
0002
0000
,
0000
0000
0003
0000
,
0100
0000
0020
0000
,
0000
0000
1030
0000
,
0001
0000
0020
0000
,
0000
0000
0130
0000
,
0100
0000
1001
0000
;

//---------------dance-single - ----------------
#NOTES:
     dance-single:
     :
     Medium:
     6:
     0.437,0.417,0.127,0.255,0.000:
0000
0000
0000
0000
,
0000
0000
0000
0000
,
0000
0000
0000
0000
,
0000
0000
0001
0010
,
0001
0000
0010
0000
0001
0000
0000
0100
,
0000
0010
1000
0001
,
1000
0000
0001
0000
1000
0000
0000
0100
,
0000
0010
0001
0001
,
1000
1000
2002
0000
,
0000
3003
0001
0001
,
0001
0000
1000
0000
0100
0000
0000
0001
,
0000
0100
1000
1000
,
1000
0001
0200
0300
,
0020
0030
1000
1000
,
1000
0000
0001
0000
0010
0000
0000
1000
,
0000
0010
0001
0001
,
0001
1000
0020
0030
,
0200
0000
0300
0000
0110
0000
0000
1010
,
0000
0000
0000
0000
0011
0000
0000
0110
,
0000
0100
1000
0001
,
1000
0001
0100
0100
,
0010
0010
1000
1000
,
1000
0000
0100
0000
0010
0000
0000
0001
,
0000
0100
0010
0010
,
0010
0000
1000
0000
0100
0000
0000
0010
,
0000
0001
0000
0100
,
1000
0000
0100
0000
0002
0000
0000
0023
,
0000
0130
1000
0010
,
1000
0100
0010
0001
,
0100
0001
0010
0100
,
0001
0000
0100
0000
2000
0000
0000
3020
,
0000
0130
0001
0010
,
0001
1000
0010
0100
,
0001
1000
0001
0010
,
0001
0000
0010
0000
0001
0000
0000
0100
,
0000
0010
1000
0100
,
1000
0000
0100
0000
1000
0000
0000
0010
,
0000
0100
0001
1000
,
0001
0000
1000
0000
0001
0000
0000
0010
,
0000
0100
1000
1000
,
0001
0001
2002
0000
,
0000
3003
1000
1000
,
1000
0000
0001
0000
0010
0000
0000
1000
,
0000
0010
0001
0001
,
0001
1000
0020
0030
,
0200
0300
0001
0001
,
0001
0000
1000
0000
0100
0000
0000
0001
,
0000
0100
1000
1000
,
1000
0001
0200
0300
,
0020
0000
0030
0000
0110
0000
0000
0101
,
0000
0000
0000
0000
1100
0000
0000
0110
,
0000
0010
0001
1000
,
0001
1000
0010
0010
,
0100
0100
0001
0001
,
0001
0000
0010
0000
0100
0000
0000
1000
,
0000
0010
0100
0100
,
0100
0000
0001
0000
0010
0000
0000
0100
,
0000
1000
0000
0010
,
0001
0000
0010
0000
2000
0000
0000
3200
,
0000
0310
0001
0100
,
0001
0010
0100
1000
,
0010
1000
0100
0010
,
1000
0000
0010
0000
0002
0000
0000
0203
,
0000
0310
1000
0100
,
1000
0001
0100
0010
,
1000
0001
1000
0000
;

//---------------dance-single - ----------------
#NOTES:
     dance-single:
     :
     Hard:
     8:
     0.619,0.626,0.471,0.178,0.000: // measure 1
0000
0000
0000
0000
,  // measure 2
0000
0000
0000
0000
,  // measure 3
0000
0000
0000
0000
,  // measure 4
0000
0010
1000
0001
,  // measure 5
0010
0000
0001
0000
1000
0000
0001
0010
,  // measure 6
0000
0010
0100
0000
1000
0000
0100
0000
,  // measure 7
0010
0000
0100
0000
1000
0000
0001
0100
,  // measure 8
0000
0100
0010
0000
1000
0000
0001
0000
,  // measure 9
0100
0000
0010
2000
0000
0000
0001
0000
,  // measure 10
0001
3001
0101
1001
,  // measure 11
0101
0000
1000
0001
0100
0000
0001
0010
,  // measure 12
0000
0100
1000
0000
1100
0000
1001
0000
,  // measure 13
1100
0000
0100
1000
0001
0000
0100
0001
,  // measure 14
1000
0010
1010
1001
,  // measure 15
1010
0000
0001
0100
1000
0000
1000
0100
,  // measure 16
0001
0010
0011
1001
,  // measure 17
0011
0000
0100
1000
0100
0000
0001
0100
,  // measure 18
0001
2000
0010
0001
,  // measure 19
0010
3002
0010
1000
,  // measure 20
0010
2003
0100
0001
,  // measure 21
0100
3002
0100
1000
,  // measure 22
0100
1003
1001
0110
,  // measure 23
1001
0000
0100
0001
0010
0000
0100
1000
,  // measure 24
0010
0100
0110
1001
,  // measure 25
0110
0000
1000
0010
0100
0000
0001
0010
,  // measure 26
0100
0000
1000
0001
0200
0000
0001
0000
,  // measure 27
0001
0010
0010
0001
,  // measure 28
0301
0010
1000
0010
,  // measure 29
0100
0001
0000
0001
0010
0000
1000
0000
,  // measure 30
0010
0001
2000
0100
,  // measure 31
0100
0001
0001
0100
,  // measure 32
3100
0000
0010
0000
0001
0000
0100
0010
,  // measure 33
0100
0000
0001
1000
0001
1000
0100
0000
,  // measure 34
1000
0001
0100
1000
,  // measure 35
0010
0000
1000
0000
0001
0000
1000
0010
,  // measure 36
0000
0010
0100
0000
0001
0000
1000
0000
,  // measure 37
0100
0000
1000
0000
0001
0000
1000
0100
,  // measure 38
0000
0100
0010
0000
0001
0000
0010
0000
,  // measure 39
0100
0000
0010
0000
0001
0000
1000
0010
,  // measure 40
0000
0010
0100
0000
0001
0000
1000
0000
,  // measure 41
0010
0000
0100
0002
0000
0000
1000
0000
,  // measure 42
1000
1003
1010
1001
,  // measure 43
1010
0000
0001
1000
0010
0000
1000
0100
,  // measure 44
0000
0010
0001
0000
0011
0000
1001
0000
,  // measure 45
0011
0000
0010
0001
1000
0000
0010
1000
,  // measure 46
0001
0100
0101
1001
,  // measure 47
0101
0000
1000
0010
0001
0000
0001
0010
,  // measure 48
1000
0100
1100
1001
,  // measure 49
1100
0000
0010
0001
0010
0000
1000
0010
,  // measure 50
1000
0002
0100
1000
,  // measure 51
0100
2003
0100
0001
,  // measure 52
0100
3002
0010
1000
,  // measure 53
0010
2003
0010
0001
,  // measure 54
0010
3001
1001
0110
,  // measure 55
1001
0000
0010
1000
0100
0000
0010
0001
,  // measure 56
0100
0010
0110
1001
,  // measure 57
0110
0000
0001
0100
0010
0000
1000
0100
,  // measure 58
0010
0000
0001
1000
0020
0000
1000
0000
,  // measure 59
1000
0100
0100
1000
,  // measure 60
1030
0100
0001
0100
,  // measure 61
0010
1000
0000
1000
0100
0000
0001
0000
,  // measure 62
0100
1000
0002
0010
,  // measure 63
0010
1000
1000
0010
,  // measure 64
0013
0000
0100
0000
1000
0000
0010
0100
,  // measure 65
0010
0000
1000
0001
1000
0001
0010
0000
,  // measure 66
0100
1000
1001
0000
;

//---------------dance-double - ----------------
#NOTES:
     dance-double:
     :
     Easy:
     3:
     0.237,0.250,0.013,0.204,0.000:
00000000
00000000
00000000
00000000
,
00000000
00000000
00000000
00000000
,
00000000
00000000
00000000
00000000
,
00000000
00000000
00010000
00000000
,
00001000
00000000
00010000
00000000
,
00001000
00000000
00000100
00000000
,
00000010
00000000
00000100
00000000
,
00000001
00000000
00000010
00000000
,
00001000
00000000
00010000
00000000
,
00001000
00000000
00010000
00010000
,
00010000
00000000
01000000
00000000
,
10000000
00000000
01000000
00000000
,
00010000
00000000
00001000
00000000
,
00000100
00000000
00000001
00000001
,
00000001
00000000
00001000
00000000
,
00000100
00000000
00010000
00000000
,
00001000
00000000
01000000
00000000
,
00010000
00000000
00200000
00000000
,
00000000
00300000
02000000
00000000
,
00000000
03000000
20000000
00000000
,
00000000
30000000
00020000
00000000
,
00000000
00030000
01000000
01000000
,
01000000
00000000
00010000
00000000
,
00100000
00000000
00001000
00000000
,
00010000
00000000
00000100
00000000
,
00001000
00000000
00000002
00000000
,
00000000
00000000
00000103
00000000
,
00000010
00000000
00002000
00000000
,
00000000
00000000
00003000
00000000
,
00000100
00000000
00020000
00000000
,
00000000
00000000
00031000
00000000
,
01000000
00000000
00200000
00000000
,
00000000
00000000
10300000
00000000
,
00100000
00000000
10000000
00000000
,
00100000
00000000
01000000
00000000
,
00100000
00000000
00010000
00000000
,
00001000
00000000
00010000
00000000
,
00001000
00000000
00000010
00000000
,
00000100
00000000
00000010
00000000
,
00000001
00000000
00000100
00000000
,
00001000
00000000
00010000
00000000
,
00001000
00000000
00010000
00010000
,
00010000
00000000
00100000
00000000
,
10000000
00000000
00100000
00000000
,
00010000
00000000
00001000
00000000
,
00000010
00000000
00000001
00000001
,
00000001
00000000
00001000
00000000
,
00000010
00000000
00010000
00000000
,
00001000
00000000
00100000
00000000
,
00010000
00000000
02000000
00000000
,
00000000
03000000
00200000
00000000
,
00000000
00300000
20000000
00000000
,
00000000
30000000
00020000
00000000
,
00000000
00030000
00100000
00100000
,
00100000
00000000
00010000
00000000
,
01000000
00000000
00001000
00000000
,
00010000
00000000
00000010
00000000
,
00001000
00000000
00000002
00000000
,
00000000
00000000
00000013
00000000
,
00000100
00000000
00002000
00000000
,
00000000
00000000
00003000
00000000
,
00000010
00000000
00020000
00000000
,
00000000
00000000
00031000
00000000
,
00100000
00000000
02000000
00000000
,
00000000
00000000
13000000
00000000
,
01000000
00000000
10010000
00000000
;

//---------------dance-double - ----------------
#NOTES:
     dance-double:
     :
     Medium:
     6:
     0.433,0.417,0.089,0.306,0.000:
00000000
00000000
00000000
00000000
,
00000000
00000000
00000000
00000000
,
00000000
00000000
00000000
00000000
,
00000000
00100000
00010000
00001000
,
00010000
00000000
00001000
00000000
00010000
00000000
00000000
00000100
,
00000000
00001000
00000001
00000100
,
00000001
00000000
00000100
00000000
00000001
00000000
00000000
00001000
,
00000000
00000100
00010000
00010000
,
00001000
00001000
00022000
00000000
,
00000000
00033000
00001000
00010000
,
00001000
00000000
00100000
00000000
00010000
00000000
00000000
00100000
,
00000000
01000000
10000000
00010000
,
10000000
00100000
02000000
03000000
,
00020000
00030000
00100000
00010000
,
00100000
00000000
00001000
00000000
00010000
00000000
00000000
00000010
,
00000000
00000100
00000001
00001000
,
00000001
00000010
00000200
00000300
,
00002000
00000000
00003000
00000000
00002001
00000000
00000000
00003100
,
00000000
00000000
00000000
00000000
00001200
00000000
00000000
00010300
,
00000000
00001000
00010000
00001000
,
01000000
00010000
00100000
00100000
,
00010000
00010000
10000000
00010000
,
10000000
00000000
01000000
00000000
00100000
00000000
00000000
00010000
,
00000000
01000000
00001000
00010000
,
00001000
00000000
00000100
00000000
00000010
00000000
00000000
00001000
,
00000000
00000001
00000000
00000010
,
00000100
00000000
00010000
00000000
00002000
00000000
00000000
00023000
,
00000000
00031000
01000000
00010000
,
10000000
00000000
01000000
10000000
,
00010000
00000000
10000000
00100000
,
01000000
00000000
00001000
00000000
00020000
00000000
00000000
00032000
,
00000000
00013000
00000100
00001000
,
00000100
00001000
00000001
00000100
,
00000001
00000010
00001000
00000100
,
00001000
00000000
00000100
00000000
00001000
00000000
00000000
00000010
,
00000000
00000100
00001000
00010000
,
00001000
00000000
00010000
00000000
00001000
00000000
00000000
00100000
,
00000000
00010000
10000000
00100000
,
10000000
00000000
00100000
00000000
10000000
00000000
00000000
00010000
,
00000000
00100000
00001000
00001000
,
00010000
00010000
00022000
00000000
,
00000000
00033000
00010000
00001000
,
00010000
00000000
00000010
00000000
00001000
00000000
00000000
00000100
,
00000000
00000010
00000001
00001000
,
00000001
00000100
00000020
00000030
,
00002000
00003000
00000100
00001000
,
00000100
00000000
00010000
00000000
00001000
00000000
00000000
01000000
,
00000000
00100000
10000000
00010000
,
10000000
01000000
00200000
00300000
,
00020000
00000000
00030000
00000000
10020000
00000000
00000000
00130000
,
00000000
00000000
00000000
00000000
00210000
00000000
00000000
00301000
,
00000000
00010000
00001000
00010000
,
00000010
00001000
00000100
00000100
,
00001000
00001000
00000001
00001000
,
00000001
00000000
00000010
00000000
00000100
00000000
00000000
00001000
,
00000000
00000010
00010000
00001000
,
00010000
00000000
00001000
00000000
01000000
00000000
00000000
00010000
,
00000000
10000000
00000000
01000000
,
00100000
00000000
00001000
00000000
00020000
00000000
00000000
00032000
,
00000000
00013000
00000010
00001000
,
00000001
00000000
00000010
00000001
,
00001000
00000000
00000001
00000100
,
00000010
00000000
00010000
00000000
00002000
00000000
00000000
00023000
,
00000000
00031000
00100000
00010000
,
00100000
00010000
10000000
01000000
,
10000000
01000000
01100000
00000000
;

//---------------dance-double - ----------------
#NOTES:
     dance-double:
     :
     Hard:
     8:
     0.624,0.626,0.484,0.204,0.000:
00000000
00000000
00000000
00000000
,
00000000
00000000
00000000
00000000
,
00000000
00000000
00000000
00000000
,
00000000
00010000
00100000
00001000
,
00100000
00000000
00010000
00000000
00100000
00000000
00001000
00010000
,
00000000
00010000
00000010
00000000
00001000
00000000
00000010
00000000
,
00010000
00000000
00000010
00000000
00001000
00000000
00000001
00000010
,
00000000
00000010
00000100
00000000
00001000
00000000
00000001
00000000
,
00001000
00000000
00000100
00020000
00000000
00000000
00001000
00000000
,
00001000
00031000
00011000
00101000
,
00011000
00000000
00100000
00001000
00010000
00000000
00000100
00010000
,
00000000
00001000
01000000
00000000
01010000
00000000
01001000
00000000
,
01010000
00000000
00010000
01000000
00100000
00000000
10000000
01000000
,
00100000
00010000
00110000
00101000
,
00110000
00000000
00100000
00001000
00010000
00000000
00001000
00010000
,
00000010
00001000
00001010
00010010
,
00001010
00000000
00000010
00000100
00000001
00000000
00000010
00000100
,
00001000
00000200
00001000
00010000
,
00001300
00020000
00001000
00000100
,
00001000
00032000
00010000
01000000
,
00013000
02000000
00100000
00010000
,
00100000
03010000
11000000
10010000
,
11000000
00000000
10000000
00010000
00100000
00000000
00001000
00010000
,
00000010
00001000
00001010
00001001
,
00001010
00000000
00000010
00000100
00000001
00000000
00000010
00000100
,
00001000
00000000
00000010
00001000
00000200
00000000
00010000
00000000
,
00010000
00001000
00001000
00010000
,
00010300
00001000
01000000
00010000
,
01000000
00100000
00000000
00100000
10000000
00000000
01000000
00000000
,
00100000
00010000
02000000
00001000
,
00001000
00010000
00010000
00001000
,
03001000
00000000
00010000
00000000
00000100
00000000
00001000
00000010
,
00001000
00000000
00000001
00000010
00000001
00001000
00000100
00000020
,
00000000
00000031
00001001
00000100
,
00000010
00000000
00000100
00000000
00000001
00000000
00000100
00000010
,
00000000
00000010
00001000
00000000
00000100
00000000
00010000
00000000
,
00000100
00000000
00001000
00000000
00000100
00000000
00010000
00001000
,
00000000
00001000
01000000
00000000
00010000
00000000
01000000
00000000
,
00001000
00000000
01000000
00000000
00010000
00000000
10000000
01000000
,
00000000
01000000
00100000
00000000
00010000
00000000
10000000
00000000
,
00010000
00000000
00100000
00002000
00000000
00000000
00010000
00000000
,
00010000
00013000
00011000
00010100
,
00011000
00000000
00000010
00010000
00001000
00000000
00100000
00001000
,
00000000
00010000
00000010
00000000
00001010
00000000
00010010
00000000
,
00001010
00000000
00001000
00000010
00000100
00000000
00000001
00000010
,
00000100
00001000
00001100
00010100
,
00001100
00000000
00000100
00010000
00001000
00000000
00010000
00001000
,
01000000
00010000
01010000
01001000
,
01010000
00000000
01000000
00100000
10000000
00000000
01000000
00100000
,
00010000
00200000
00010000
00001000
,
00310000
00002000
00010000
01000000
,
00013000
00020000
00001000
00000010
,
00031000
00000020
00000100
00001000
,
00000100
00001030
00000011
00001001
,
00000011
00000000
00000001
00001000
00000100
00000000
00010000
00001000
,
01000000
00010000
01010000
10010000
,
01010000
00000000
01000000
00100000
10000000
00000000
01000000
00100000
,
00010000
00000000
01000000
00010000
00200000
00000000
00001000
00000000
,
00001000
00010000
00010000
00001000
,
00301000
00010000
00000010
00001000
,
00000010
00000100
00000000
00000100
00000001
00000000
00000010
00000000
,
00000100
00001000
00000020
00010000
,
00010000
00001000
00001000
00010000
,
00010030
00000000
00001000
00000000
00100000
00000000
00010000
01000000
,
00010000
00000000
10000000
01000000
10000000
00010000
00100000
02000000
,
00000000
13000000
10010000
00000000
;
