#TITLE:STEP UP;
#SUBTITLE:;
#ARTIST:THE CHEETAH GIRLS;
#TITLETRANSLIT:;
#SUBTITLETRANSLIT:;
#ARTISTTRANSLIT:;
#CREDIT:;
#BANNER:STEP UP.png;
#BACKGROUND:STEP UP-bg.png;
#LYRICSPATH:;
#CDTITLE:./CDTITLES/Dance Dance Revolution Disney Channel Edition.png;
#MUSIC:STEP UP.mp3;
#OFFSET:-0.062;
#SAMPLESTART:8.343;
#SAMPLELENGTH:15.000;
#SELECTABLE:YES;
#BPMS:0.000=112.000;
#STOPS:;
#BGCHANGES:;

//---------------dance-single - ----------------
#NOTES:
     dance-single:
     :
     Beginner:
     1:
     0.080,0.134,0.029,0.000,0.000:
0000
0000
0000
0000
,
0000
0000
0000
0000
,
0000
0000
0000
0000
,
1000
0000
0010
0000
,
0100
0000
0000
0000
,
0001
0000
0000
0000
,
1000
0000
0000
0000
,
0010
0000
0100
0000
,
1000
0000
0000
0000
,
0100
0000
0000
0000
,
0001
0000
0000
0000
,
0010
0000
0100
0000
,
0010
0000
0000
0000
,
0100
0000
0000
0000
,
1000
0000
0000
0000
,
0001
0000
1000
0000
,
0010
0000
0000
0000
,
0100
0000
0000
0000
,
0001
0000
0000
0000
,
1000
0000
0001
0000
,
0100
0000
0000
0000
,
0010
0000
0000
0000
,
0010
0000
0000
0000
,
0100
0100
0000
0000
,
1000
0000
0000
0000
,
0010
0000
0000
0000
,
0100
0000
0000
0000
,
0001
0000
0010
0000
,
0100
0000
0000
0000
,
1000
0000
0000
0000
,
0010
0000
0000
0000
,
0001
0000
1000
0000
,
0100
0000
0000
0000
,
0010
0000
0000
0000
,
0001
0000
0000
0000
,
1000
0000
0010
0000
,
0100
0000
0000
0000
,
0001
0000
0000
0000
,
0010
0000
0000
0000
,
0100
0000
1000
0000
,
0010
0000
0000
0000
,
0100
0000
0000
0000
,
0110
0000
0000
0000
,
0100
0000
0010
0000
,
0110
0000
0000
0000
,
1000
0000
0000
0000
,
0001
0000
0000
0000
,
1001
0000
0000
0000
;

//---------------dance-single - ----------------
#NOTES:
     dance-single:
     :
     Easy:
     3:
     0.174,0.205,0.067,0.000,0.000:
0000
0000
0000
0000
,
0000
0000
0000
0000
,
0000
0000
0000
0000
,
0100
0100
0000
0010
,
0010
0000
0001
0000
,
1000
0000
0100
0000
,
0010
0001
0001
0000
,
1000
1000
0100
0000
,
0010
0000
1000
0000
,
0001
0000
0100
0000
,
1000
0000
0010
0000
,
0100
0100
0001
0000
,
0001
0000
1000
0001
,
1000
0000
0010
0100
,
0010
0000
0100
0000
,
0001
1000
0010
0100
,
1000
0000
0001
1000
,
0001
0000
0100
0010
,
0100
0000
0010
0000
,
1000
0001
0100
0010
,
1000
0000
0100
0000
,
0010
0001
0001
0000
,
0001
0000
0010
0000
,
0100
1000
1000
0000
,
0110
0000
1000
0000
,
0001
0000
0010
0000
,
1001
1000
1000
0000
,
0001
0001
0010
0000
,
0100
0000
0001
0000
,
1000
0000
0010
0000
,
1001
0000
0100
0000
,
0010
0010
1000
0000
,
1000
0000
0001
1000
,
0001
0000
0100
0010
,
0100
0000
0010
0000
,
1000
0001
0100
0010
,
1001
0000
1000
0001
,
0110
0000
0010
0100
,
1000
0000
0100
0000
,
0001
1000
0010
0010
,
0100
0010
0001
0000
,
0100
0010
1000
0000
,
0100
1000
0001
0000
,
0001
0010
0001
0000
,
0110
0000
1000
0000
,
0001
0000
0100
0000
,
1001
0000
0100
0000
,
0010
0100
0001
1000
;

//---------------dance-single - ----------------
#NOTES:
     dance-single:
     :
     Medium:
     5:
     0.313,0.342,0.143,0.000,0.000:
0000
0000
0000
0000
,
0000
0000
0000
0000
,
0000
0000
0000
0000
,
1100
0100
0010
0001
,
0001
0100
1000
0100
,
0001
0010
1000
0010
,
0100
0000
0010
0000
1000
0100
1000
0000
,
0010
0000
0100
0000
0001
0010
0001
0000
,
0100
0000
1000
0000
0010
0100
0010
0000
,
0100
0000
0001
0000
0100
0010
0100
0000
,
0001
0000
1000
0000
0001
0100
1000
0000
,
0100
0001
0010
1100
,
0010
0000
0010
0000
1000
0100
1000
0000
,
0100
0000
0100
0000
0001
0010
0001
0000
,
0100
0000
1000
0000
0010
1000
0100
0000
,
0001
1000
0100
0110
,
0001
0000
0001
0000
1000
0100
0010
0000
,
1000
0000
1000
0000
0001
0010
0100
0000
,
0100
0000
0100
0000
1000
0010
0100
0000
,
0001
1000
0001
0110
,
0011
0000
1100
0000
0100
0001
0100
0000
,
1100
0000
0011
0000
0010
1000
0010
0000
,
0001
0000
1000
0100
0010
0000
0001
0000
,
1000
0010
1000
0000
0100
0001
0100
0000
,
0010
0000
0000
1000
0100
0000
0010
0000
,
0001
0000
0000
0001
0100
0000
0010
0000
,
1000
0000
0000
0100
0010
0000
0001
0000
,
1000
0001
0100
1001
,
0100
0000
0011
0000
1000
0100
1000
0000
,
0010
0000
0101
0000
1000
0010
1000
0000
,
0100
0000
0001
0000
0010
0000
0100
1000
,
0100
0000
0010
0000
1000
0100
1000
0000
,
0100
0000
0100
0000
0001
0010
0001
0000
,
0010
0000
0010
0000
1000
0100
1000
0000
,
0010
0000
0001
0000
0100
0001
0010
0000
,
1000
0001
0010
0110
,
1000
0000
1000
0000
0001
0010
0100
0000
,
0001
0000
0001
0000
1000
0100
0010
0000
,
0010
0000
0010
0000
0001
0100
0010
0000
,
1000
0001
1000
0110
,
0001
0000
1000
0000
0010
0100
0001
0000
,
0010
0000
0100
0000
1000
0001
0010
0000
,
0100
0000
0010
0000
0001
1000
0100
0000
,
0100
1001
0001
0110
,
0001
0000
0010
0000
0100
1000
0100
0000
,
0001
0000
0100
0000
1000
0010
0001
0000
,
0010
0000
1000
0000
0100
1000
0010
0000
,
0100
0001
0010
0000
0010
1000
0001
0100
;

//---------------dance-single - ----------------
#NOTES:
     dance-single:
     :
     Hard:
     7:
     0.432,0.387,0.162,0.000,0.200: // measure 1
0000
0000
0000
0000
,  // measure 2
0000
0000
0000
0000
,  // measure 3
0000
0000
0000
0000
,  // measure 4
0100
0000
1000
0000
0010
1000
0001
0000
,  // measure 5
0010
1001
0100
1001
,  // measure 6
0010
1000
0100
0000
0010
0100
0001
1000
,  // measure 7
0100
0000
0000
0010
0001
1000
0100
0000
,  // measure 8
0011
0000
1100
0000
0000
0100
1000
0001
,  // measure 9
0100
1001
0010
1001
,  // measure 10
0100
0001
0010
0000
0100
0010
1000
0001
,  // measure 11
0010
0000
0000
0100
1000
0001
0010
0000
,  // measure 12
1100
0000
0011
0000
0000
0010
0001
1000
,  // measure 13
0100
0000
0001
0000
0000
0000
1000
0100
0000
1000
0100
0000
0010
0000
0001
0000
,  // measure 14
0100
0000
0010
0000
0000
0000
1000
0010
0000
1000
0010
0000
0100
0000
0001
0000
,  // measure 15
0010
0000
0100
0000
0000
0000
1000
0001
0000
1000
0001
0000
0100
0000
0010
0000
,  // measure 16
1000
0001
0010
0100
1000
0000
0100
0010
,  // measure 17
0010
0000
1000
0000
0000
0000
0001
0010
0000
0001
0010
0000
0100
0000
1000
0000
,  // measure 18
0010
0000
0100
0000
0000
0000
0001
0100
0000
0001
0100
0000
0010
0000
1000
0000
,  // measure 19
0100
0000
0010
0000
0000
0000
0001
1000
0000
0001
1000
0000
0010
0000
0100
0000
,  // measure 20
0001
1000
0100
0010
0001
0010
0100
0000
,  // measure 21
1000
0000
0000
0000
0001
0000
1000
0100
0000
0000
0010
0000
0001
0000
0000
0000
,  // measure 22
0100
0000
0000
0000
0010
0000
1000
0001
0000
0000
0100
0000
0000
0001
0000
0000
,  // measure 23
0100
0000
0000
0000
0010
0000
0100
1000
0000
0000
0001
0000
1000
0000
0010
0000
,  // measure 24
0100
0000
0000
0000
0001
0000
1000
0010
0000
0000
0100
0000
0000
0001
0000
0000
,  // measure 25
0100
1001
0010
1001
,  // measure 26
0100
0001
0010
0000
0100
0010
1000
0001
,  // measure 27
0010
0000
0000
0100
1000
0001
0010
0000
,  // measure 28
1100
0000
0011
0000
0000
0010
0001
1000
,  // measure 29
0010
1001
0100
1001
,  // measure 30
0010
1000
0100
0000
0010
0100
0001
1000
,  // measure 31
0100
0000
0000
0010
0001
1000
0100
0000
,  // measure 32
0011
0000
1100
0000
0000
0100
1000
0001
,  // measure 33
0010
0000
1000
0000
0000
0000
0001
0010
0000
0001
0010
0000
0100
0000
1000
0000
,  // measure 34
0010
0000
0100
0000
0000
0000
0001
0100
0000
0001
0100
0000
0010
0000
1000
0000
,  // measure 35
0100
0000
0010
0000
0000
0000
0001
1000
0000
0001
1000
0000
0010
0000
0100
0000
,  // measure 36
0001
1000
0100
0010
0001
0000
0010
0100
,  // measure 37
0100
0000
0001
0000
0000
0000
1000
0100
0000
1000
0100
0000
0010
0000
0001
0000
,  // measure 38
0100
0000
0010
0000
0000
0000
1000
0010
0000
1000
0010
0000
0100
0000
0001
0000
,  // measure 39
0010
0000
0100
0000
0000
0000
1000
0001
0000
1000
0001
0000
0100
0000
0010
0000
,  // measure 40
1000
0001
0010
0100
1000
0100
0010
0000
,  // measure 41
0100
0000
0001
0000
0000
0000
1000
0100
0000
0010
0001
0000
0010
0000
0001
0000
,  // measure 42
0100
0000
0010
0000
0000
0000
1000
0010
0000
0100
0001
0000
0100
0000
0001
0000
,  // measure 43
0010
0000
0100
0000
0000
0000
1000
0001
0000
0100
0010
0000
0100
0000
0010
0000
,  // measure 44
1000
0001
0010
0100
1000
0010
0100
0010
,  // measure 45
0010
0000
1000
0000
0000
0000
0001
0010
0000
0100
1000
0000
0100
0000
1000
0000
,  // measure 46
0010
0000
0100
0000
0000
0000
0001
0100
0000
1000
0010
0000
0010
0000
1000
0000
,  // measure 47
0100
0000
0010
0000
0000
0000
0001
1000
0000
0100
0010
0000
0010
0000
0100
0000
,  // measure 48
1000
0001
0100
0000
0001
0010
0100
1100
;

//---------------dance-double - ----------------
#NOTES:
     dance-double:
     :
     Easy:
     4:
     0.196,0.228,0.152,0.038,0.000:
00000000
00000000
00000000
00000000
,
00000000
00000000
00000000
00000000
,
00000000
00000000
00000000
00000000
,
00000010
00000010
00000000
00000100
,
00001000
00000000
00010000
00000000
,
00100000
00100000
01000000
00000000
,
10000000
00000000
00100000
00000000
,
00001000
00001000
00010000
00000000
,
00000010
00000000
00000100
00000000
,
00000001
00000001
00000100
00000000
,
00000010
00000000
00001000
00000000
,
00000100
00000100
00010000
00000000
,
01100000
00000000
10000000
00010000
,
10010000
00000000
00100000
00001000
,
00011000
00000000
00000100
00000010
,
00000001
00000001
00001000
00000000
,
00000110
00000000
00000001
00001000
,
00001001
00000000
00000100
00010000
,
00011000
00000000
00100000
01000000
,
10000000
10000000
00010000
00000000
,
10000000
00000000
00100000
00000000
,
00010000
00001000
00000100
00000010
,
00000100
00000000
00000010
00000000
,
00001000
00001000
00010000
00000000
,
00100000
00000000
01000000
00000000
,
10000000
10000000
00100000
00000000
,
00010000
00000000
01000000
00000000
,
00001000
00001000
00010000
00000000
,
00000100
00000000
00000010
00000000
,
00000001
00000001
00000001
00000000
,
00000100
00000000
00000010
00000000
,
00001000
00010000
01000000
00010000
,
10010000
00000000
00100000
01000000
,
01100000
00000000
00010000
00000100
,
00011000
00000000
00001000
00000010
,
00000001
00000010
00001000
00000000
,
00001001
00000000
00000010
00000100
,
00000110
00000000
00001000
00010000
,
00011000
00000000
00010000
01000000
,
10000000
01000000
00010000
00000000
,
00200000
00000000
01000000
01300000
,
00002000
00000000
00010000
00013000
,
00000020
00000000
00000100
00000130
,
00000200
00000000
00000001
00000301
,
00000110
00000000
00001000
00000000
,
00011000
00000000
00100000
00000000
,
10010000
00000000
01000000
00000000
,
00010000
00000000
00001000
00000000
,
00011000
00000000
00000000
00000000
;

//---------------dance-double - ----------------
#NOTES:
     dance-double:
     :
     Medium:
     6:
     0.307,0.273,0.067,0.057,0.000:
00000000
00000000
00000000
00000000
,
00000000
00000000
00000000
00000000
,
00000000
00000000
00000000
00000000
,
00100000
00001000
00010000
00000100
,
00011000
00000000
00000010
00000000
00000100
00000000
00000010
00000001
,
00000010
00001000
00000100
00010000
,
00011000
00000000
00100000
00000000
00010000
01000000
00010000
00000000
,
10000000
00000000
00100000
00000000
00010000
00000000
00001000
00010000
,
00001000
00010000
00000100
00001000
,
00000001
00000000
00000010
00000000
00001000
00000010
00001000
00000000
,
00010000
00000000
01000000
00000000
10000000
00100000
10000000
00000000
,
00100000
00001000
00010000
00011000
,
00000010
00000000
00001000
00000000
00000010
00000001
00000010
00000000
,
00001000
00000000
00010000
00000000
00100000
10000000
00100000
00000000
,
01000000
00000000
00010000
00000000
00001000
00000010
00001000
00000000
,
00000020
00000000
00000031
00000000
00001000
00000100
00001000
00000000
,
00000200
00000000
00010300
00000000
00001000
00100000
00001000
00000000
,
10000000
00100000
01000000
00010000
,
00001000
00000000
00000100
00000000
00000010
00000001
00000010
00000000
,
00011000
00000000
00000010
00000000
00000100
00000000
00000010
00000001
,
00000010
00001000
00000100
00010000
,
00011000
00000000
00100000
00000000
00010000
01000000
00010000
00000000
,
10000000
00000000
00100000
00000000
00010000
00000000
00001000
00010000
,
00001000
00010000
00000100
00001000
,
00000001
00000000
00000010
00000000
00001000
00000010
00001000
00000000
,
00010000
00000000
01000000
00000000
10000000
00100000
10000000
00000000
,
00100000
00001000
00010000
00011000
,
00000010
00000000
00001000
00000000
00000001
00000010
00000100
00000000
,
00000010
00010000
00001000
00100000
,
00010000
00000000
10000000
00000000
01000000
10000000
01000000
00000000
,
00100000
00001000
00010000
00000100
,
00000010
00000001
00000010
00000000
00000100
00001000
00000100
00000000
,
00000010
00000000
00001000
00000000
00000010
00000001
00000010
00000000
,
00001000
00000000
00010000
00000000
00100000
10000000
00100000
00000000
,
01000000
00000000
00010000
00000000
00001000
00000010
00001000
00000000
,
00000020
00000000
00000031
00000000
00001000
00000100
00001000
00000000
,
00000200
00000000
00010300
00000000
00001000
00100000
00001000
00000000
,
10000000
00100000
01000000
00010000
,
00001000
00000000
00000100
00000000
00000010
00000001
00000010
00000000
,
00011000
00100000
00100000
01000000
,
00100000
00000000
00010000
00000000
00100000
10000000
01000000
00000000
,
00010000
00000000
00001000
00000000
00000100
00000001
00000100
00000000
,
00000010
00000000
00001000
00000000
00010000
01000000
00010000
00000000
,
02000000
00000000
13000000
00000000
00010000
00100000
00010000
00000000
,
00200000
00000000
00301000
00000000
00010000
00000100
00010000
00000000
,
00000001
00000100
00000010
00001000
,
00010000
00000000
00100000
00000000
01000000
10000000
01000000
00000000
,
00100000
00000000
00010000
00000000
00001000
00000000
00000010
00000001
;

//---------------dance-double - ----------------
#NOTES:
     dance-double:
     :
     Hard:
     7:
     0.363,0.394,0.076,0.010,0.029:
00000000
00000000
00000000
00000000
,
00000000
00000000
00000000
00000000
,
00000000
00000000
00000000
00000000
,
10000000
00000000
00100000
00000000
01000000
00000000
00001000
00010000
,
00001000
00000000
00010000
00000000
00000010
00001000
00000100
00000000
,
00000010
00000001
00000100
00000000
00000010
00010000
00001000
00000000
,
00100000
00001000
00010000
00000000
00010000
00001000
01000000
00000000
,
00010000
10000000
01000000
00100000
00010000
10000000
10000000
00000000
,
00100000
10000000
01000000
00000000
00100000
00000000
00001000
00000000
,
00010000
00000010
00001000
00000000
00000100
00001000
00000001
00000000
,
00000010
00000000
00000001
00000000
00001000
00000100
00000010
00000000
,
00000001
00000100
00001000
00010000
,
01000000
10000000
00100000
00000000
01000000
00000000
00001000
00000000
,
00010000
00000010
00001000
00000000
00000001
00000000
00000100
00000000
,
00000010
00010000
00001000
00000000
00010000
00001000
00010000
00000000
,
00010000
01000000
10000000
01000000
00010000
00000000
01100000
00000000
,
00010000
01000000
00001000
00000000
00010000
00000100
00001000
00000000
,
00000010
00000100
00000001
00000000
00000001
00000100
00001000
00000000
,
00000100
00001000
00010000
00000000
00010000
00001000
00000100
00000000
,
00001000
00000100
00000010
00010000
00001000
00100000
00010000
00000000
,
11000000
00000000
00000000
00000000
00010000
00000000
10000000
01000000
00000000
00000000
00100000
00000000
00001000
00000000
00010000
00000000
,
00011000
00000000
00000000
00000000
00000100
00000000
00001000
00000010
00000000
00000000
00000100
00000000
00000000
00000001
00000000
00000000
,
00000101
00000000
00000000
00000000
00000010
00000000
00001000
00000100
00000000
00000000
00010000
00000000
00001000
00000000
00010000
00000000
,
00011000
00000000
00000000
00000000
01000000
00000000
00010000
00100000
00000000
00000000
01000000
00000000
00000000
10000000
00000000
00000000
,
00100000
00000000
10000000
00000000
00010000
01000000
00001000
00000000
,
00010000
00000000
00000100
00000000
00001000
00000010
00000100
00000000
,
00000001
00000000
00000010
00000000
00000100
00001000
00000001
00000000
,
00000100
00000010
00000100
00000000
00001000
00010000
00001000
00000000
,
01000000
00000000
00010000
00000000
10000000
00100000
01000000
00000000
,
00010000
00000000
00100000
00000000
00001000
00010000
00000100
00000000
,
00001000
00000000
00000010
00000000
00000100
00000001
00000100
00000000
,
00000010
00001000
00000100
00000000
00010000
00001000
00100000
00000000
,
01000000
10000000
00100000
00000000
01000000
00000000
00001000
00000000
,
00010000
00000010
00001000
00000000
00000001
00000000
00000100
00000000
,
00000010
00010000
00001000
00000000
00010000
00001000
00010000
00000000
,
00010000
01000000
10000000
01000000
00010000
00000000
01100000
00000000
,
00010000
01000000
00001000
00000000
00010000
00000100
00001000
00000000
,
00000010
00000100
00000001
00000000
00000001
00000100
00001000
00000000
,
00010000
01000000
10000000
00000000
10000000
00100000
00010000
00000000
,
00001000
00000010
00000001
00000100
00000001
00000000
00000110
00000000
,
00000010
00000001
00000100
00000000
00000010
00000000
00010000
00000000
,
00001000
01000000
00010000
00000000
10000000
00000000
00100000
00000000
,
01000000
00001000
00010000
00000000
00001000
00010000
00001000
00000000
,
00001000
00000010
00000001
00000010
00001000
00000000
00000110
00000000
,
00001000
00000010
00010000
00000000
00001000
00100000
00010000
00000000
,
01000000
00100000
10000000
00000000
10000000
00100000
00010000
00000000
,
00100000
00010000
00001000
00000000
00001000
00010000
00100000
00000000
,
00010000
00100000
01000000
00001000
00010000
00000100
00001000
00000020
,
00000000
00000000
00000000
00000030
;
