#TITLE:PUSH IT TO THE LIMIT;
#ARTIST:JUMP IN;
#FILE:PUSH IT TO THE LIMIT.mp3;
#BPM:126.000;
#GAP:22;
#SAMPLESTART:22.851;
#SAMPLELENGTH:15.000;
#CDTITLE:./CDTITLES/Dance Dance Revolution Disney Channel Edition.png;
#DISPLAYBPM:126..130;
#SINGLE:BEGINNER:1:
00000000
00000000
00000000
40000000
20000000
80000000
60000000
40000000
80000000
20000000
40000000
60000000
80000000
40000000
20000000
60000000
80000000
20000000
60000000
40000000
80000000
20000000
40000000
60000000
40000000
60000000
20000000
80000000
20000000
80000000
40000000
60000000
80002000
40000000
80002000
60000000
40000000
60000000
80002000
40002000
80000000
60000000
40000000
20000000
80000000
20000000
60000000
40000000
80000000
;
#SINGLE:BASIC:3:
00000000
00000000
00000000
2!20000020
4!40000040
6!60000060
8!80000080
2!20000020
40000080
20000000
60000080
20000000
40008000
20006000
80006000
40002020
40000040
80000080
20000020
60008080
40008000
20006000
80006000
40002020
60004000
80002000
60008000
20004000
80002000
20008000
40006000
40802060
40002000
80006000
8020A000
4060B000
60008000
20004000
2080A000
6040B000
80800040
20004000
60600040
80002000
20200060
80006000
40400080
20006040
B0000000
;
#SINGLE:ANOTHER:5:
00000000
00000000
00000000
60008000
40208000
40002000
80604000
804060B0
20806040
80206424
80406020
80406860
B0804260
A0206240
80406260
70206080
40802680
20408420
90204820
68204280
60208420
80602680
10806280
42806820
48084030
86068010
820280B0
20906420
62026070
24042090
280820B0
80104680
B0804260
A0206240
80406260
70206080
B0206840
A0804860
20604840
30804020
62404260
48606842
86202480
84209010
B0A06240
A0B04260
80408260
90201090
B0000000
;
#SINGLE:MANIAC:7:
00000000
00000000
00000000
00408020
6!60000009
2!20000000
1!40006000
B0204646
(8006400080003000)
(4008400020608000)
(2004600020007000)
(6002600080402020)
48406260
24208680
46207084
6040A0B0
(2004600020007000)
(6002600080402000)
(8006400080003000)
(4008400020608080)
(2006400020009000)
(4002400080602000)
(8004600080001000)
(6008600020408080)
01010862
07070248
03030842
(800060048000A000)
09090248
03030862
07070268
(2000400820604000)
62604840
86802420
64803026
4060A0B0
68604240
26208480
64209086
4060A0B0
28604080
28406020
24608640
60400680
68604240
26208480
64209086
40601090
B0000000
;
#DOUBLE:BASIC:3:
00000000
00000000
00000000
00004040
8!80000080
00000000
00000000
00000000
60004000
20008080
60000000
00000000
00000000
00006000
20008000
40002020
60000000
00000000
00000000
60602000
40006020
80000000
60000000
00000000
00000000
00000000
60800000
40202000
60600000
00600000
00000000
00000000
00000000
00006000
60008000
40408020
A0800000
B0600000
60600000
00000000
00000060
00006000
20408000
20006000
00000000
00006000
60008000
40408020
A0000000
:
00000000
00000000
00000000
00000000
00000000
4!40000040
80002000
60602000
00000000
00000000
00004000
80206040
80002000
40000000
00000000
00000000
00204000
80006060
20004000
00000000
00000000
00004000
00004080
20200080
60200000
40400000
00000000
00000000
00000000
40000000
80800000
40208060
B0200000
A0400000
40400000
00000000
00000000
00004000
40002000
60602080
30408000
40000000
00000000
00000000
A0206000
B0200000
40400000
00000000
00000000
;
#DOUBLE:ANOTHER:5:
00000000
00000000
00000000
00208060
60000000
00000000
00006000
80604820
80200860
20006060
00000000
00000000
00000000
06006080
24208006
00600000
00000060
06002060
80604820
64802060
00000000
00000060
00206080
24242090
02080626
00060000
00000000
00000000
00000000
06000268
02040620
84286070
24208060
80006000
00000000
00000000
00000000
00600680
26208048
40601090
2!20803080
00606000
00000000
00000600
86208420
62404260
00600000
00000000
00000000
:
00000000
00000000
00000000
00000000
40008000
20806040
10004000
00000000
00004000
00400040
80204280
40608010
86802040
20400400
00000040
40001090
86402000
40400000
00000000
00000400
80402820
60204200
40000000
00000000
00000000
04000842
08060480
26824030
08020484
00040000
00000000
00000000
00000000
00400420
84802062
604080A0
86802040
20004000
00000000
00000000
00000000
4!40004080
20608020
42402040
00000000
00000000
40002420
80409010
A0000000
;
#DOUBLE:MANIAC:7:
00000000
00000000
00000000
00026020
6!60000060
00600000
00000000
00000000
06006000
60862010
84204260
26060000
00000600
62404260
80900060
00000000
00000000
60602080
42803080
42808060
00000000
602680B0
82608060
00000000
00000060
06090428
010A0860
20600000
00000060
06030482
070A0260
80600000
00000600
68404860
20300060
00000000
00006080
62404260
28608060
06000000
00000000
00000600
26824080
4!40207260
26308060
00000000
00006060
28684290
1!10000010
:
00000000
00000000
00000000
00000004
00004000
00082084
20862080
206040B0
20400420
04000000
00000000
004080B0
84702040
00000000
00004040
82426010
86242080
04040000
00000000
00000400
42606240
04000000
00000400
84286280
090A0204
04000000
00000000
04004828
030A0804
04000000
00000000
04004280
24108040
00000000
00004040
284860A0
24100400
00000000
00000400
402080A0
6!6020B820
60802040
00000000
00000000
00000402
48606840
24100440
00000000
00000000
;
