#TITLE:NOBODY'S PERFECT;
#ARTIST:HANNAH MONTANA;
#FILE:NOBODY'S PERFECT.mp3;
#BPM:132.000;
#GAP:125;
#SAMPLESTART:20.987;
#SAMPLELENGTH:15.000;
#CDTITLE:./CDTITLES/Dance Dance Revolution Disney Channel Edition.png;
#SINGLE:BEGINNER:1:
00000000
00000000
00000000
00000000
00400000
00600000
00200000
00800000
40000000
00200020
00800000
60606000
20008000
20000000
60008000
60000000
40002000
40000000
80002000
80000000
B0000000
00000000
00400000
00600000
00200020
00800080
00400000
00600000
00800080
00200020
00400000
00600060
00200000
40404000
20008000
20000000
60002000
60000000
40008000
40000000
80002000
80000000
60002000
40000000
60008000
40000000
A0008000
80000000
20002000
20000000
60006000
60000000
40006000
40006000
B0000000
;
#SINGLE:BASIC:3:
00000000
00000000
00000000
00000000
00400040
00600060
00202020
00808080
00200060
00400060
00800020
4060B000
80208000
40604000
20006000
20004000
80208000
40604000
80006000
80004000
B0000000
20002000
80006000
40002000
60002000
40008000
004!40404!40
406!60606!60
60802020
00406060
00800060
00400060
00200080
4060B000
20802000
40604000
80006000
80004000
20802000
40604000
20006000
20004000
80608000
40804000
20006000
80004000
20002000
80008000
60006000
40604060
20002000
80008000
A000B000
A000B000
2!20000000
20000000
;
#SINGLE:ANOTHER:5:
00000000
00000000
00000000
00000000
0040208!80
8060208!80
8040248!80
8060268!80
A0408040
20880080
60406040
82828000
B0204080
40208680
20408480
206040B0
60206080
20408480
20608680
204060B0
A!20000000
808080A0
4060424!40
4080262!20
20804060
80201030
0060208!80
8040208!80
8060268!80
8040248!80
A0608060
20880040
60406040
82828000
B0206080
60208480
20608680
204060B0
40204080
20608680
20408480
20604070
30206080
20408280
40608280
60406040
B!60002030
60804080
6!60604!4040
8!80802640
B!40002010
40806080
44022066
0880440B
0A!A000000
A0000000
;
#SINGLE:MANIAC:7:
00000000
00000000
00000000
00000000
04246420
06264620
08428680
02482620
60306030
40820280
40104010
4646B!B0B0
86408462
08028468
20B04260
80B04860
26402468
02082462
80B04860
20B04260
B!B00000B0
B0B0B0B0
B2846820
04826420
08246420
08264620
06864680
A0246420
08624260
08248680
40106030
40280820
40706090
6464B!B0B0
24602648
02082642
80B06840
20B06240
84608642
08028648
20B06240
80B06840
82408264
06042860
20A04260
80A04286
4!40206020
6020B024
6!60204020
4020B826
8!80206020
60209024
BB699411
6BB0628B
0A!A000000
00000000
A0000000
;
#DOUBLE:BASIC:3:
00000000
00000000
00000000
00000000
00000000
00000000
00000000
00606060
00000020
00800040
00600080
2080A000
60006000
00000000
00000000
00006000
00600000
20802000
40008000
60000000
60000000
60000000
00000000
00000000
00000000
00006000
002!20202!20
208!80808!80
80402060
00000000
00000000
00600000
00200080
4020A000
60006000
00000000
00000000
00006000
00600000
20802000
40008000
60000000
60000000
00602000
60000000
00000000
00000000
00000000
60006000
20802080
60006000
40004000
A000B000
A0006000
00000000
00000000
:
00000000
00000000
00000000
00000000
00600060
00400040
00202020
00000000
00400000
00000000
00000000
00000000
00400000
20802000
60008000
40000000
40004000
00000000
00000000
00004000
40000000
00004000
20008000
60004000
80002000
40000000
00000000
00000000
00000000
00402060
00800020
00000040
00000000
00000000
00400000
20802000
60008000
40000000
40004000
00000000
00000000
00004000
00402000
40000000
00004000
20006000
80008000
40004000
00000000
00000000
00000000
00000000
00000000
00004000
2!20000000
20000000
;
#DOUBLE:ANOTHER:5:
00000000
00000000
00000000
00000000
0040206!60
60000000
00000600
0060806!60
60602040
80220020
60800060
06060000
60000000
00000000
60002620
80402060
60000000
00000000
60008680
204080A0
B!B0000060
20202010
8000606!60
60000000
00000000
00000000
0040806!60
60000000
00000600
0060206!60
60608040
20880080
60200060
06060000
60000000
00000000
60008680
20408060
60000000
00000000
60002620
80402060
60000000
00000060
00600260
80204060
B0008020
00600000
00000000
00000000
00000000
60002080
44022066
00000000
00000000
00000000
:
00000000
00000000
00000000
00000000
00000000
0040206!60
6040804!40
40000400
40000000
00000000
00004000
40404000
40402060
20804240
00400000
00000000
40408060
80204840
00400000
00000000
00000000
00000000
00400400
0080282!20
20608020
40603010
00000000
0040806!60
6040204!40
40000400
40000000
00000000
00004000
40404000
40408060
80204840
00400000
00000000
40402060
20804240
00400000
00000000
40402060
80204200
40004000
00000000
00000000
40002080
6!60604!4040
8!80802640
B0008020
00400000
00000000
04402682
0B!B000000
B0000000
;
#DOUBLE:MANIAC:7:
00000000
00000000
00000000
00000000
04246260
08680600
00208620
06060000
00000000
00600060
20102010
4646B!B0B0
86408460
26806000
60000000
00000000
00000000
00060060
02608620
84209010
B!B00000B0
40206000
60000000
00000000
00060620
08060600
00000000
60060260
08624260
08426240
80900060
00000000
00006060
8646B!B0B0
26402460
86206000
60000000
00000000
00000000
00060060
08602680
24803070
26808060
60000000
00006020
84601030
4!40208020
80207062
00806080
60806000
00000000
00000000
00066033
0BB08428
0A!A000000
00000000
A0000000
:
00000000
00000000
00000000
00000000
00000000
00004040
04040000
00208420
80908090
20040400
00000000
00000000
00000000
00040040
02408420
86207030
84608640
24804000
40000000
00000000
00000000
00000040
02428680
04846260
02404000
00404080
06264240
20404000
00000000
00000000
00004040
20460640
20100040
00000000
00000000
00040040
08402480
26801090
24602640
84204000
40000000
00000000
00000400
08404620
84200400
00000000
00000000
00000000
4!40000000
00004420
6!60208020
80209060
11044000
00000000
00000000
00000000
00000000
;
