#TITLE:Magical House Cleaning / Blue or Pink;
#SUBTITLE:;
#ARTIST:Disney Grooves;
#TITLETRANSLIT:;
#SUBTITLETRANSLIT:;
#ARTISTTRANSLIT:;
#CREDIT:;
#BANNER:;
#BACKGROUND:;
#LYRICSPATH:;
#CDTITLE:./CDTITLES/DanceDanceRevolution Disney Grooves.png;
#MUSIC:Magical House Cleaning Blue or Pink.mp3;
#OFFSET:-0.116;
#SAMPLESTART:7.000;
#SAMPLELENGTH:15.000;
#SELECTABLE:YES;
#BPMS:0.000=128.000;
#STOPS:;
#BGCHANGES:;

//---------------dance-single - ----------------
#NOTES:
     dance-single:
     :
     Beginner:
     2:
     0.093,0.148,0.050,0.000,0.000:
0000
0000
0000
0000
,
0000
0000
0000
0000
,
0000
0000
0000
0000
,
0000
0000
0000
0000
,
0010
0000
0010
0000
,
1000
0000
1000
0000
,
0001
0000
0000
0000
,
0001
0000
0000
0000
,
0010
0000
0010
0000
,
0001
0000
0001
0000
,
1000
0000
0000
0000
,
1000
0000
0000
0000
,
1000
0000
0000
0000
,
0001
0000
0000
0000
,
1000
0000
0000
0000
,
0100
0000
0000
0000
,
0001
0000
0001
0000
,
1000
0000
1000
0000
,
0001
0000
0000
0000
,
0010
0000
0000
0000
,
0000
0000
0000
0000
,
0000
0000
0000
0000
,
0100
0000
0100
0000
,
0001
0000
0001
0000
,
1000
0000
0000
0000
,
1001
0000
0000
0000
,
0100
0000
0100
0000
,
1000
0000
1000
0000
,
0001
0000
0000
0000
,
0001
0000
0000
0000
,
0001
0000
0000
0000
,
1000
0000
0000
0000
,
0001
0000
0000
0000
,
0010
0000
0000
0000
,
0100
0000
0000
0000
,
0010
0000
0000
0000
,
0010
0000
0000
0000
,
0010
0000
0000
0000
,
1001
0000
0000
0000
,
0100
0000
0100
0000
,
0001
0000
0001
0000
,
1000
0000
0000
0000
,
0010
0000
0000
0000
,
1000
1000
0000
0000
,
0001
0001
0000
0000
,
1001
0000
0000
0000
,
1001
0000
0000
0000
,
0100
0000
0000
0000
,
0010
0000
1000
0000
,
0001
0000
1001
0000
;

//---------------dance-single - ----------------
#NOTES:
     dance-single:
     :
     Easy:
     4:
     0.144,0.173,0.060,0.090,0.000:
0000
0000
0000
0000
,
0000
0000
0000
0000
,
0000
0000
0000
0000
,
0000
0000
0000
0000
,
0001
0000
0100
0000
,
1000
0000
0010
0000
,
1000
1000
1000
0000
,
0100
0100
0100
0000
,
1000
0000
0100
0000
,
0001
0000
0010
0000
,
0001
0001
0001
0000
,
0010
0010
0010
0000
,
0020
0000
0030
0000
,
2000
0000
3000
0000
,
0200
0000
0300
0000
,
0002
0000
0003
0000
,
1000
0000
1000
0000
,
0001
0000
0001
0000
,
1000
0000
0001
0000
,
0100
0000
1001
0000
,
0200
0000
0000
0000
,
0000
0000
0300
0000
,
1000
1000
1000
0000
,
0001
0001
0001
0000
,
0100
0000
0010
0000
,
0100
0000
1001
0000
,
0001
0000
0010
0000
,
1000
0000
0100
0000
,
1000
0000
1000
0000
,
0001
0000
0001
0000
,
0200
0000
0300
0000
,
0002
0000
0003
0000
,
0020
0000
0030
0000
,
2000
0000
3000
0000
,
0100
0000
0000
0000
,
0100
0000
0000
0000
,
0100
0000
0000
0000
,
0010
0000
0100
0000
,
1001
0000
0000
0000
,
1000
0000
0010
0000
,
0001
0000
0100
0000
,
0001
0001
0001
0000
,
0100
0100
0100
0000
,
1000
1000
1000
0000
,
0001
0001
0001
0000
,
1001
0000
0000
0000
,
1001
0000
0010
0000
,
0100
0000
1000
0000
,
0001
0000
0100
0000
,
0100
0000
1001
0000
;

//---------------dance-single - ----------------
#NOTES:
     dance-single:
     :
     Medium:
     6:
     0.231,0.223,0.110,0.210,0.000:
0000
0000
0000
0000
,
0000
0000
0000
0000
,
0000
0000
0000
0000
,
0000
0000
0000
0000
,
1000
0100
0010
0000
,
0100
0100
0010
0000
,
0001
0100
1000
0100
,
1000
0001
1000
0000
,
0001
0100
0010
0000
,
0100
0100
0010
0000
,
1000
0100
0001
0100
,
0001
1000
1001
0000
,
2000
0000
3200
0000
,
2300
0000
3100
0100
,
0002
0000
0203
0000
,
0302
0000
0103
0100
,
0001
1000
0002
0003
,
1000
0001
2000
3000
,
0001
0100
0001
1000
,
0001
1000
1001
0000
,
2000
0000
3200
0000
,
0320
0000
0031
0001
,
1000
1000
0010
0000
,
0001
0001
0010
0000
,
0100
0000
0010
0000
,
0110
0000
1001
0000
,
0001
0100
0010
0000
,
0100
0100
0010
0000
,
1000
0010
0001
0010
,
1000
0100
0001
0000
,
0002
0000
0203
0000
,
0302
0000
0103
0100
,
2000
0000
3200
0000
,
2300
0000
3100
0100
,
0100
0000
0000
0000
,
0100
0010
0010
0000
,
0100
0100
0010
0000
,
1001
0000
0110
0000
,
2002
0000
3003
0000
,
1000
0010
0100
0000
,
0010
0010
0100
0000
,
1000
0100
0001
0100
,
1000
0100
0002
0000
,
1000
1000
1003
0000
2000
0000
0000
0000
,
0001
0001
3001
0000
0001
0000
0000
0000
,
0110
0000
1000
0000
,
0110
0000
0010
0000
,
0100
0000
1000
1000
,
0001
0001
1000
0000
,
1001
0000
1001
0000
;

//---------------dance-single - ----------------
#NOTES:
     dance-single:
     :
     Hard:
     9:
     0.318,0.321,0.150,0.180,0.000:
0000
0000
0000
0000
,
0000
0000
0000
0000
,
0000
0000
0000
0000
,
0000
0000
0000
0000
,
0010
0000
0100
0000
0001
0010
0100
0000
,
1000
1010
1000
0001
,
0100
0000
0010
0000
1000
0100
0010
0000
,
0001
1000
0001
1000
0001
1000
0001
0000
,
0010
0000
0100
0000
1000
0010
0100
0000
,
0001
0011
0001
1000
,
0100
0000
0010
0000
0001
0100
0010
0000
,
1000
0001
1000
0001
1001
0000
0000
0000
,
0002
0100
0000
0103
,
0020
0000
1000
0000
0100
0100
0130
0000
,
2000
0100
0000
3100
,
0020
0000
0001
0000
0100
0100
0130
0000
,
1000
0001
0200
0000
,
0301
1000
0020
0000
,
1030
0001
0010
0100
,
1000
0001
1001
0000
,
1000
0200
0310
0002
,
0013
0200
1300
1000
,
0010
0100
1000
0100
,
0010
0100
0001
0100
,
0000
0110
0000
1001
,
0110
0000
1001
0000
,
0100
0000
0010
0000
1000
0100
0010
0000
,
0001
0101
0001
1000
,
0010
0000
0100
0000
0001
0010
0100
0000
,
1000
0001
1000
0001
1000
0000
0000
0000
,
0002
0010
0000
0013
,
0200
0000
1000
0000
0010
0010
0310
0000
,
2000
0010
0000
3010
,
0200
0000
0001
0000
0010
0010
0310
0000
,
0100
0000
0000
0000
,
2000
0100
3100
0002
,
0100
0103
2000
0010
,
3010
0100
0001
0100
,
1000
0100
0100
0000
,
0010
0000
0100
0000
1000
0010
0100
0000
,
0001
0011
0001
1000
,
0100
0000
0010
0000
0001
0100
0010
0000
,
1000
0001
1000
0001
2000
0000
0000
0000
,
0001
0001
3001
0000
0002
0000
0000
0000
,
1000
1000
1003
0000
0001
1000
0001
0000
,
1000
0010
1000
0010
1000
0000
0100
0000
,
0001
0010
0001
0010
0001
0000
0010
0000
,
0100
0010
1000
1100
,
0001
0011
0110
0000
,
1001
0000
1001
0000
;
