#TITLE:IT'S ON;
#ARTIST:JUMP IN;
#FILE:IT'S ON.mp3;
#BPM:105.000;
#GAP:49;
#SAMPLESTART:27.155;
#SAMPLELENGTH:15.000;
#CDTITLE:./CDTITLES/Dance Dance Revolution Disney Channel Edition.png;
#SINGLE:BEGINNER:1:
00000000
00000000
00000000
00000000
40008000
40008000
20006000
20006000
40000000
80000000
20000000
60002000
80808000
20202000
60004000
60004000
20202000
80808000
60004000
60004000
20000000
80000000
60000000
40000000
80002000
80002000
60004000
60004000
20202000
80808000
60002000
40002000
60606000
40404000
80002000
60004000
20006000
20004000
80006000
80004000
20008000
60004000
20006000
20004000
B0000000
20000000
20000000
20000000
20000000
;
#SINGLE:BASIC:3:
00000000
00000000
00000000
00000000
40604020
80604000
60406020
80406000
80004000
80002020
80006000
20004060
80802020
80208020
4!40406!6060
40604000
80802020
80208020
6!60604!4040
60406000
60204000
40206000
60804000
40806020
80004060
40002080
20006000
40008000
60406040
80208020
6!60604!4040
20408020
60406040
20802080
6!60604!4040
60804000
80402040
80402040
6!60602!2020
40206000
80602060
80602060
4!40402!2020
60204000
B!40004000
2!20002000
8!80008000
6!60006000
2!20002000
;
#SINGLE:ANOTHER:5:
00000000
00000000
00000000
00000000
40204028
60806082
40804082
60206028
40B00060
80B00020
40B00020
60B00082
4!40802080
B!60208030
80602040
80402068
2!20406010
8!80604090
40206080
20406000
A28!808040
228!808060
22402260
80204064
60208084
60802020
40106030
80406028
4!40208020
B!60802090
20608040
20408062
8!80406070
2!20604030
40806020
80406028
6!60208020
B!40802070
20408060
20608042
8!80604090
2!20406010
60804020
806040B2
8!80008006
6!60006000
4!40004002
2!20002000
B0000000
;
#SINGLE:MANIAC:7:
00000000
00000000
00000000
00000000
(60608080606086!600)
(B0402020404024!400)
(70804040808048!800)
(A020606020206404)
669!602090
447!402072
663!608030
441!408018
68486842
62426248
8!80A2!20126
(008020A000464060)
86268624
84248426
6!60B4!40742
08620BA0
(6060004040008200)
(6060004040000028)
(6060004040006200)
(8080002028082080)
4648428!80
9462682!20
14306610
84602682
42624268
48684864
B!4072!20382
(0060204000828040)
26862484
26862484
2!2032!20182
04260280
68486842
62426246
B!6038!80728
(0040806000282060)
84248626
84248626
8!8078!80928
06840AB0
2!20002006
8!80008000
2!20002004
8!80008000
B0000000
;
#DOUBLE:BASIC:3:
00000000
00000000
00000000
00000000
40802080
60000000
00000000
00608000
40006000
40002020
60000000
00000000
00000000
00006060
00008!8080
60406000
20208080
60600000
6!60600000
00000000
00000000
60006000
20608000
40208060
20000060
00000000
00000000
00000000
00000000
60006000
6!60600000
80604060
20802080
60006000
6!60600000
00000000
00600060
00800080
6!60602!2020
80600000
00600060
00200020
6!60608!8080
20406000
B!40004000
2!20002000
6!60006000
00000000
00000000
:
00000000
00000000
00000000
00000000
00000000
00402000
60208020
40000000
00000000
00000000
00004000
20006040
20208080
40400000
4!40400000
00000000
00000000
00004040
00002!2020
40604000
80402000
00400000
00000000
00000000
00004000
40002080
20006000
40002000
80208020
00400040
00004!4040
00000000
00000000
00400040
00004!4040
20604000
20002000
40004000
00000000
00004000
80008000
40004000
00000000
00000000
00000000
00000000
00000000
4!40004000
2!20002000
;
#DOUBLE:ANOTHER:5:
00000000
00000000
00000000
00000000
80408048
60006000
00000000
60006006
20300040
20700020
00600000
00000000
00000000
6!60208030
80402060
00000000
00000000
2!20406010
80206080
00600000
00000000
662!202040
88204460
20608006
00000000
60208020
40706090
00600000
00000000
6!60208030
80402060
00000000
00000000
2!20406010
80206080
00600000
00000000
6!60802090
20408060
00000000
00000000
8!80406070
20806020
00600000
00000000
00000000
00000006
6!60006000
60000000
:
00000000
00000000
00000000
00000000
00000000
00400042
60206024
00400040
00000000
00000000
40400020
80300048
4!40208010
00000000
00000000
40206028
2!20406010
00000000
00000000
40002000
B62!202040
00000000
00000000
00000040
40208024
00000000
00000000
40002082
4!40208010
00000000
00000000
40206028
2!20406010
00000000
00000000
40008028
4!40802070
00000000
00000000
40806082
8!80406070
00000000
00000000
400080A4
6!60006002
2!20002000
4!40004000
00000000
40000000
;
#DOUBLE:MANIAC:7:
00000000
00000000
00000000
00000000
(4020602040206000)
(0000000000000000)
(8000600080006000)
(6000000060000000)
00000000
06602682
48B02410
60609006
00060006
00060000
00000006
08600268
06820682
06280628
80220426
00000000
(0000000000000000)
(6000000060000028)
(4060006040002600)
(0060006000000000)
00000000
0600068!84
72106230
80600606
00600606
00600606
60206430
80806000
68086080
68086080
60600000
00000006
24860624
86062486
60000000
06804260
00006000
00600000
6!609046A0
60600000
00000000
6!60006000
2!20002004
8!80008000
60000000
:
00000000
00000000
00000000
00000000
(00000000000004!400)
(10602040206024!400)
(40400040004004!400)
(4080408000804202)
48B02630
40400000
00000000
04400010
42804280
48204824
40660240
00040000
40004000
40004000
00000000
04260910
(6040004060002400)
(0040004000000000)
(0000000000000000)
(4000000042026080)
8628684!42
10424000
00000000
04008020
42024020
42024020
4!40400000
00400424
00400404
00400404
008046A0
60106240
00004000
00400000
4!40106210
40000004
86240486
24048624
40000000
004028B0
2!20002004
00000000
00000000
00000000
40000000
;
