#TITLE:Hakuna Matata;
#SUBTITLE:;
#ARTIST:Disney Grooves;
#TITLETRANSLIT:;
#SUBTITLETRANSLIT:;
#ARTISTTRANSLIT:;
#CREDIT:;
#BANNER:;
#BACKGROUND:;
#LYRICSPATH:;
#CDTITLE:./CDTITLES/DanceDanceRevolution Disney Grooves.png;
#MUSIC:Hakuna Matata.mp3;
#OFFSET:-0.067;
#SAMPLESTART:25.700;
#SAMPLELENGTH:15.000;
#SELECTABLE:YES;
#BPMS:0.000=93.000;
#STOPS:;
#BGCHANGES:;

//---------------dance-single - ----------------
#NOTES:
     dance-single:
     :
     Beginner:
     1:
     0.078,0.092,0.000,0.000,0.000:
0000
0000
0000
0000
,
0000
0000
0000
0000
,
0000
0001
0000
0000
,
0000
1000
0000
0000
,
0000
0001
0000
0000
,
0010
0000
0000
0000
,
0000
1000
0000
0000
,
0000
0001
0000
0000
,
0000
1000
0000
0000
,
0010
0000
0000
0000
,
0001
0001
0000
0000
,
1000
1000
0000
0000
,
0001
0000
0001
0000
,
1000
0000
1000
0000
,
1000
1000
0000
0000
,
0001
0001
0000
0000
,
1000
0000
1000
0000
,
0001
0000
0001
0000
,
1000
0000
0000
0000
,
0001
0000
0000
0000
,
0000
1000
0000
0000
,
0000
0001
0000
0000
,
0000
1000
0000
0000
,
0010
0000
0000
0000
,
0000
0001
0000
0000
,
0000
1000
0000
0000
,
0000
0001
0000
0000
,
0010
0000
0000
0000
,
0001
0001
0000
0000
,
1000
1000
0000
0000
,
0001
0000
0001
0000
,
1000
0000
1000
0000
,
1000
1000
0000
0000
,
0001
0001
0000
0000
,
1000
0000
1000
0000
,
0001
0000
0001
0000
,
0001
0001
0000
0000
,
1000
1000
0000
0000
,
0001
0000
0001
0000
,
1000
0000
1000
0000
,
0010
0000
0000
0000
;

//---------------dance-single - ----------------
#NOTES:
     dance-single:
     :
     Easy:
     3:
     0.136,0.129,0.000,0.000,0.000:
0000
0000
0000
0000
,
0000
0000
0000
0000
,
0000
0001
0000
0001
,
0000
1000
0000
1000
,
0000
0001
0000
0001
,
0010
0010
0010
0000
,
0000
1000
0000
1000
,
0000
0001
0000
0001
,
0000
1000
0000
1000
,
0010
0010
0010
0000
,
0001
0001
0000
0001
,
1000
1000
0000
1000
,
0001
0001
0001
0000
,
1000
1000
1000
0000
,
1000
1000
0000
1000
,
0001
0001
0000
0001
,
1000
1000
1000
0000
,
0001
0001
0001
0000
,
1000
0000
0000
1000
,
0001
0000
0000
0001
,
0000
1000
0000
1000
,
0000
0001
0000
0001
,
0000
1000
0000
1000
,
0010
0010
0010
0000
,
0000
0001
0001
0001
,
0000
1000
1000
1000
,
0000
0001
0000
0001
,
0010
0010
0010
0000
,
0001
0001
0000
0001
,
1000
1000
0000
1000
,
0001
0001
0001
0000
,
1000
1000
1000
0000
,
1000
1000
0000
1000
,
0001
0001
0000
0001
,
1000
1000
1000
0000
,
0001
0001
0001
0000
,
0001
0001
0000
0001
,
1000
1000
0000
1000
,
0001
0001
0001
0000
,
1000
1000
1000
0000
,
0010
0000
0000
0000
;

//---------------dance-single - ----------------
#NOTES:
     dance-single:
     :
     Medium:
     4:
     0.203,0.240,0.231,0.092,0.000:
0000
0000
0000
0000
,
0000
0000
0000
0000
,
1000
0001
0010
0000
,
0001
1000
0001
0100
,
0010
0010
1000
0000
,
2002
0000
0000
3003
,
0001
1000
0010
0000
,
1000
0001
1000
0100
,
0010
0010
0001
0000
,
2002
0000
0000
3003
,
1001
1001
0010
0010
,
1001
1001
0010
0010
,
0001
0001
1000
1000
,
0100
0000
0100
0000
,
1001
1001
0010
0010
,
1001
1001
0010
0010
,
1000
1000
0001
0001
,
0100
0000
0100
0000
,
2000
0000
3100
0000
,
0002
0000
0103
0000
,
1000
0001
0010
0000
,
0001
1000
0001
0100
,
0010
0010
1000
0000
,
2002
0000
0000
3003
,
0001
1000
0010
0000
,
1000
0001
1000
0100
,
0010
0010
0001
0000
,
2002
0000
0000
3003
,
1001
1001
0010
0010
,
1001
1001
0010
0010
,
0001
0001
1000
1000
,
0100
0000
0100
0000
,
1001
1001
0010
0010
,
1001
1001
0010
0010
,
1000
1000
0001
0001
,
0100
0000
0100
0000
,
1001
1001
0100
0100
,
1001
1001
0100
0100
,
0001
0001
1000
1000
,
0010
0000
0010
0000
,
1001
0000
0000
0000
;

//---------------dance-single - ----------------
#NOTES:
     dance-single:
     :
     Hard:
     6:
     0.248,0.277,0.268,0.018,0.018:
0000
0000
0000
0000
,
0000
0000
0000
0000
,
1000
0001
0010
1100
,
0010
1000
0001
0100
,
0010
1000
0100
0011
,
1000
0000
0000
1000
0000
0000
1000
0000
0000
0000
0000
0000
0000
0000
0000
0000
,
0001
1000
0010
0101
,
0010
0001
1000
0100
,
0010
0001
0100
1010
,
0001
0000
0000
0001
0000
0000
0001
0000
0000
0000
0000
0000
0000
0000
0000
0000
,
0011
0000
1100
0000
0001
1000
0001
0000
,
1010
0000
0101
0000
1000
0001
1000
0000
,
0001
0001
1000
1000
,
0010
1000
0100
1000
,
1010
0000
0101
0000
1000
0001
1000
0000
,
0011
0000
1100
0000
0001
1000
0001
0000
,
1000
1000
0001
0001
,
0010
0001
0100
0001
,
2000
0100
3100
0000
,
0002
0100
0103
0000
,
1000
0001
0010
1100
,
0010
1000
0001
0100
,
0010
1000
0100
0011
,
1000
0000
0000
1000
0000
0000
1000
0000
0000
0000
0000
0000
0000
0000
0000
0000
,
0001
1000
0010
0101
,
0010
0001
1000
0100
,
0010
0001
0100
1010
,
0001
0000
0000
0001
0000
0000
0001
0000
0000
0000
0000
0000
0000
0000
0000
0000
,
0011
0000
1100
0000
0001
1000
0001
0000
,
1010
0000
0101
0000
1000
0001
1000
0000
,
0001
0001
1000
1000
,
0010
1000
0100
1000
,
1010
0000
0101
0000
1000
0001
1000
0000
,
0011
0000
1100
0000
0001
1000
0001
0000
,
1000
1000
0001
0001
,
0010
0001
0100
0001
,
0110
0000
1001
0000
0010
0100
0010
0000
,
1001
0000
0110
0000
1000
0001
1000
0000
,
0001
0001
1000
1000
,
0010
1000
0100
0010
,
1001
0000
0000
0000
;
