#TITLE:GIRL POWER;
#ARTIST:THE CHEETAH GIRLS;
#FILE:GIRL POWER.mp3;
#BPM:90.000;
#GAP:778;
#SAMPLESTART:0.020;
#SAMPLELENGTH:15.000;
#CDTITLE:./CDTITLES/Dance Dance Revolution Disney Channel Edition.png;
#DISPLAYBPM:87..90;
#SINGLE:BASIC:3:
00000000
00000000
00000000
00000000
00206040
00804060
00208020
00B000A0
002!202060
406!606020
802!202060
40608020
404!404080
208!808040
604!404060
80604020
80204060
00806040
00208020
00A000B0
00806020
00804020
00604060
00B000A0
008!808040
208!808060
802!202040
80202080
804!404020
806!606080
204!40408!80
80202060
6!60000060
00206040
00804060
00208020
00B000A0
00804020
00806020
00406040
00A000B0
;
#SINGLE:BEGINNER:1:
00000000
00000000
00000000
00000000
00200020
00600060
00400040
00800080
00200000
00B00000
00200000
00400040
00200000
00B00000
00200000
00600060
00200020
00400040
00600060
00800080
00200020
00600060
00400040
00800080
00200000
00400060
00400000
00202020
20200000
00600000
00400060
004!400000
40000000
00200020
00400040
00600060
00800080
00200020
00600060
00400040
00800080
;
#SINGLE:ANOTHER:5:
00000000
00000000
00000000
00000000
00602080
04602080
02408060
04260426
008!808064
602!20A!8072
406!609!80A6
2040A060
A04!404062
608!807!4018
204!40B!6034
2060A040
A0602080
04206020
08604020
06240624
08206040
06802040
06408020
04260426
00B00066
60100022
20700044
408!80A!203!60
B0A00066
60100088
80B00420
0620B086
24!4000040
06208040
06806040
08206040
06240624
08206040
02408020
08402060
04260426
;
#SINGLE:MANIAC:6:
00000000
00000000
00000000
00000000
0028464!40
4062686!60
6026424!40
48260826
00B0A068
4260A086
2480B026
842!20A!809!60
B!40120064
84660028
424!407!80A6
28482648
2682464!40
4082686!60
6026484!40
48640864
0046282!20
2084262!20
2048464!40
48260826
00B03084
28B01024
28901046
284!401!20A!80
9!6030B084
62A0B028
42B002B0
02B8A2B8
AB000000
0028464!40
4062686!60
6026424!40
48260826
0084282!20
2048626!60
6028464!40
48420842
AB000000
;
#DOUBLE:BASIC:2:
00000000
00000000
00000000
00000000
00600000
00000000
00000000
00600060
00200040
20800040
20600060
00000000
00000000
00000000
00000000
60200040
00800040
00600080
00000060
00600060
00000000
00000000
00000000
00600060
008!800000
802!200000
206!600000
60000000
00000000
00000000
0000006!60
60202040
4!40000040
00800040
00600080
00000060
00600060
00000000
00000000
00000000
00600060
:
00000000
00000000
00000000
00000000
00000040
00200060
00200040
00400040
00000000
00000000
00000000
40200060
00800060
80200060
20400040
00000000
00000000
00000000
00400000
00400040
00400020
00600080
00200040
00400040
00000000
00000000
00000000
00404020
208!800000
802!200000
204!404000
00000000
00000000
00000000
00000000
00400000
00400040
00400020
00600080
00200040
00400040
;
#DOUBLE:ANOTHER:5:
00000000
00000000
00000000
00000000
00000000
00000000
00600060
02480248
006!606000
00000000
00000000
00602060
00000006
206!606024
802!202082
608!80806!60
60000000
00000000
00600060
00000000
00000000
00000000
00600060
02480248
00408026
20006000
00000000
00000000
6!60904062
60802060
60000000
00000000
62000000
00802080
00408060
00006000
00000000
00000000
00000060
00208020
04280428
:
00000000
00000000
00000000
00000000
00206020
00804020
00004000
00000000
00000042
804!404068
208!808062
40000000
402!202040
00000000
00000000
00004!4040
2!20108040
00608020
00004000
04280428
00206020
00804020
00004000
00000000
00000000
00400024
20806028
206!603!201!40
40000000
00000004
00200620
06206024
00000000
00000000
00000000
00400040
02680268
00604060
00204000
00000000
00000000
;
#DOUBLE:MANIAC:6:
00000000
00000000
00000000
00000000
00006000
00000000
00600060
08600860
00300084
86828026
80600000
00000000
60000026
20600284
28620084
28248600
00000000
00000000
60262060
06060606
00682860
84262820
60000000
00000000
00000000
60800068
06000000
608090A0
10200482
68008060
00000000
00000000
62000000
00286820
80600060
00000000
00000000
00600060
86284280
20602680
08600860
66000000
:
00000000
00000000
00000000
00000000
00240420
28426280
02042400
04040404
00000000
00000000
04024082
68203010
20400400
04040000
00000000
00000048
62428240
68268240
04000400
02400240
00000000
00000000
04284280
03820382
006!6000B2
04000000
40200042
04000000
00000000
00400402
42800640
06428624
04000000
00000000
04042400
84246800
0B240B24
00042400
00000000
04040000
04040404
02000000
;
